  0
SECTION
  2
HEADER
  9
$ACADVER
  1
AC1015
  9
$ACADMAINTVER
 70
    20
  9
$DWGCODEPAGE
  3
ANSI_932
  9
$INSBASE
 10
0.0
 20
0.0
 30
0.0
  9
$EXTMIN
 10
9538.017429955653
 20
-229.0823503051543
 30
0.0
  9
$EXTMAX
 10
12898.01742995565
 20
2146.917649694843
 30
0.0
  9
$LIMMIN
 10
0.0
 20
0.0
  9
$LIMMAX
 10
841.0
 20
594.0
  9
$ORTHOMODE
 70
     0
  9
$REGENMODE
 70
     1
  9
$FILLMODE
 70
     1
  9
$QTEXTMODE
 70
     0
  9
$MIRRTEXT
 70
     0
  9
$LTSCALE
 40
1.0
  9
$ATTMODE
 70
     1
  9
$TEXTSIZE
 40
15.0
  9
$TRACEWID
 40
0.05
  9
$TEXTSTYLE
  7
STANDARD
  9
$CLAYER
  8
寸法
  9
$CELTYPE
  6
ByLayer
  9
$CECOLOR
 62
   256
  9
$CELTSCALE
 40
1.0
  9
$DISPSILH
 70
     0
  9
$DIMSCALE
 40
1.0
  9
$DIMASZ
 40
10.0
  9
$DIMEXO
 40
0.5
  9
$DIMDLI
 40
10.0
  9
$DIMRND
 40
0.0
  9
$DIMDLE
 40
0.0
  9
$DIMEXE
 40
1.5
  9
$DIMTP
 40
0.0
  9
$DIMTM
 40
0.0
  9
$DIMTXT
 40
10.0
  9
$DIMCEN
 40
0.0
  9
$DIMTSZ
 40
0.0
  9
$DIMTOL
 70
     0
  9
$DIMLIM
 70
     0
  9
$DIMTIH
 70
     0
  9
$DIMTOH
 70
     0
  9
$DIMSE1
 70
     0
  9
$DIMSE2
 70
     0
  9
$DIMTAD
 70
     1
  9
$DIMZIN
 70
     8
  9
$DIMBLK
  1
OPEN
  9
$DIMASO
 70
     1
  9
$DIMSHO
 70
     1
  9
$DIMPOST
  1

  9
$DIMAPOST
  1

  9
$DIMALT
 70
     0
  9
$DIMALTD
 70
     2
  9
$DIMALTF
 40
25.4
  9
$DIMLFAC
 40
1.0
  9
$DIMTOFL
 70
     1
  9
$DIMTVP
 40
0.0
  9
$DIMTIX
 70
     0
  9
$DIMSOXD
 70
     1
  9
$DIMSAH
 70
     0
  9
$DIMBLK1
  1

  9
$DIMBLK2
  1

  9
$DIMSTYLE
  2
Standard 2
  9
$DIMCLRD
 70
     4
  9
$DIMCLRE
 70
     4
  9
$DIMCLRT
 70
     3
  9
$DIMTFAC
 40
1.0
  9
$DIMGAP
 40
0.8
  9
$DIMJUST
 70
     0
  9
$DIMSD1
 70
     0
  9
$DIMSD2
 70
     0
  9
$DIMTOLJ
 70
     1
  9
$DIMTZIN
 70
     0
  9
$DIMALTZ
 70
     0
  9
$DIMALTTZ
 70
     0
  9
$DIMUPT
 70
     0
  9
$DIMDEC
 70
     1
  9
$DIMTDEC
 70
     1
  9
$DIMALTU
 70
     2
  9
$DIMALTTD
 70
     2
  9
$DIMTXSTY
  7
STANDARD
  9
$DIMAUNIT
 70
     0
  9
$DIMADEC
 70
     0
  9
$DIMALTRND
 40
0.0
  9
$DIMAZIN
 70
     0
  9
$DIMDSEP
 70
    46
  9
$DIMATFIT
 70
     3
  9
$DIMFRAC
 70
     0
  9
$DIMLDRBLK
  1
OPEN
  9
$DIMLUNIT
 70
     2
  9
$DIMLWD
 70
    -2
  9
$DIMLWE
 70
    -2
  9
$DIMTMOVE
 70
     0
  9
$LUNITS
 70
     2
  9
$LUPREC
 70
     4
  9
$SKETCHINC
 40
0.1
  9
$FILLETRAD
 40
0.0
  9
$AUNITS
 70
     0
  9
$AUPREC
 70
     0
  9
$MENU
  1
.
  9
$ELEVATION
 40
0.0
  9
$PELEVATION
 40
0.0
  9
$THICKNESS
 40
0.0
  9
$LIMCHECK
 70
     0
  9
$CHAMFERA
 40
0.0
  9
$CHAMFERB
 40
0.0
  9
$CHAMFERC
 40
0.0
  9
$CHAMFERD
 40
0.0
  9
$SKPOLY
 70
     0
  9
$TDCREATE
 40
2453879.599556250
  9
$TDUCREATE
 40
2453879.224556250
  9
$TDUPDATE
 40
2455034.641903021
  9
$TDUUPDATE
 40
2455034.266903021
  9
$TDINDWG
 40
12.2120920949
  9
$TDUSRTIMER
 40
12.2120920949
  9
$USRTIMER
 70
     1
  9
$ANGBASE
 50
0.0
  9
$ANGDIR
 70
     0
  9
$PDMODE
 70
     0
  9
$PDSIZE
 40
0.0
  9
$PLINEWID
 40
0.0
  9
$SPLFRAME
 70
     0
  9
$SPLINETYPE
 70
     6
  9
$SPLINESEGS
 70
     8
  9
$HANDSEED
  5
4786C
  9
$SURFTAB1
 70
     6
  9
$SURFTAB2
 70
     6
  9
$SURFTYPE
 70
     6
  9
$SURFU
 70
     6
  9
$SURFV
 70
     6
  9
$UCSBASE
  2

  9
$UCSNAME
  2

  9
$UCSORG
 10
0.0
 20
0.0
 30
0.0
  9
$UCSXDIR
 10
1.0
 20
0.0
 30
0.0
  9
$UCSYDIR
 10
0.0
 20
1.0
 30
0.0
  9
$UCSORTHOREF
  2

  9
$UCSORTHOVIEW
 70
     0
  9
$UCSORGTOP
 10
0.0
 20
0.0
 30
0.0
  9
$UCSORGBOTTOM
 10
0.0
 20
0.0
 30
0.0
  9
$UCSORGLEFT
 10
0.0
 20
0.0
 30
0.0
  9
$UCSORGRIGHT
 10
0.0
 20
0.0
 30
0.0
  9
$UCSORGFRONT
 10
0.0
 20
0.0
 30
0.0
  9
$UCSORGBACK
 10
0.0
 20
0.0
 30
0.0
  9
$PUCSBASE
  2

  9
$PUCSNAME
  2

  9
$PUCSORG
 10
0.0
 20
0.0
 30
0.0
  9
$PUCSXDIR
 10
1.0
 20
0.0
 30
0.0
  9
$PUCSYDIR
 10
0.0
 20
1.0
 30
0.0
  9
$PUCSORTHOREF
  2

  9
$PUCSORTHOVIEW
 70
     0
  9
$PUCSORGTOP
 10
0.0
 20
0.0
 30
0.0
  9
$PUCSORGBOTTOM
 10
0.0
 20
0.0
 30
0.0
  9
$PUCSORGLEFT
 10
0.0
 20
0.0
 30
0.0
  9
$PUCSORGRIGHT
 10
0.0
 20
0.0
 30
0.0
  9
$PUCSORGFRONT
 10
0.0
 20
0.0
 30
0.0
  9
$PUCSORGBACK
 10
0.0
 20
0.0
 30
0.0
  9
$USERI1
 70
     0
  9
$USERI2
 70
     0
  9
$USERI3
 70
     0
  9
$USERI4
 70
     0
  9
$USERI5
 70
     0
  9
$USERR1
 40
0.0
  9
$USERR2
 40
0.0
  9
$USERR3
 40
0.0
  9
$USERR4
 40
0.0
  9
$USERR5
 40
0.0
  9
$WORLDVIEW
 70
     1
  9
$SHADEDGE
 70
     3
  9
$SHADEDIF
 70
    70
  9
$TILEMODE
 70
     1
  9
$MAXACTVP
 70
    48
  9
$PINSBASE
 10
0.0
 20
0.0
 30
0.0
  9
$PLIMCHECK
 70
     0
  9
$PEXTMIN
 10
18.95196538203392
 20
0.7996673802841308
 30
-0.0015258207003583
  9
$PEXTMAX
 10
27.35284428409399
 20
7.200576801086516
 30
0.0000000349246037
  9
$PLIMMIN
 10
4.492378303894111
 20
-6.192683539556673
  9
$PLIMMAX
 10
46.48704383123786
 20
23.50838152391989
  9
$UNITMODE
 70
     0
  9
$VISRETAIN
 70
     1
  9
$PLINEGEN
 70
     0
  9
$PSLTSCALE
 70
     1
  9
$TREEDEPTH
 70
  3020
  9
$CMLSTYLE
  2
Standard
  9
$CMLJUST
 70
     0
  9
$CMLSCALE
 40
1.0
  9
$PROXYGRAPHICS
 70
     1
  9
$MEASUREMENT
 70
     0
  9
$CELWEIGHT
370
    -1
  9
$ENDCAPS
280
     0
  9
$JOINSTYLE
280
     0
  9
$LWDISPLAY
290
     0
  9
$INSUNITS
 70
     0
  9
$HYPERLINKBASE
  1

  9
$STYLESHEET
  1
aclt.ctb
  9
$XEDIT
290
     1
  9
$CEPSNTYPE
380
     0
  9
$PSTYLEMODE
290
     1
  9
$FINGERPRINTGUID
  2
{38CFB5B5-58A1-4A5F-8FF4-3E4BDF19FCE3}
  9
$VERSIONGUID
  2
{3483EDFA-F858-4C93-BC75-1D55EADA43A1}
  9
$EXTNAMES
290
     1
  9
$PSVPSCALE
 40
0.0
  9
$OLESTARTUP
290
     0
  0
ENDSEC
  0
SECTION
  2
CLASSES
  0
CLASS
  1
ACDBDICTIONARYWDFLT
  2
AcDbDictionaryWithDefault
  3
ObjectDBX Classes
 90
        0
280
     0
281
     0
  0
CLASS
  1
ACDBPLACEHOLDER
  2
AcDbPlaceHolder
  3
ObjectDBX Classes
 90
        0
280
     0
281
     0
  0
CLASS
  1
LAYOUT
  2
AcDbLayout
  3
ObjectDBX Classes
 90
        0
280
     0
281
     0
  0
CLASS
  1
DICTIONARYVAR
  2
AcDbDictionaryVar
  3
ObjectDBX Classes
 90
        0
280
     0
281
     0
  0
CLASS
  1
PLOTSETTINGS
  2
AcDbPlotSettings
  3
ObjectDBX Classes
 90
        0
280
     0
281
     0
  0
CLASS
  1
DIMASSOC
  2
AcDbDimAssoc
  3
"AcDbDimAssoc|Product Desc:     AcDim ARX App For Dimension|Company:          Autodesk, Inc.|WEB Address:      www.autodesk.com"
 90
    32768
280
     0
281
     0
  0
CLASS
  1
MATERIAL
  2
AcDbMaterial
  3
ObjectDBX Classes
 90
     1153
280
     0
281
     0
  0
CLASS
  1
VISUALSTYLE
  2
AcDbVisualStyle
  3
ObjectDBX Classes
 90
     4095
280
     0
281
     0
  0
CLASS
  1
TABLESTYLE
  2
AcDbTableStyle
  3
ObjectDBX Classes
 90
     4095
280
     0
281
     0
  0
CLASS
  1
SCALE
  2
AcDbScale
  3
ObjectDBX Classes
 90
     1153
280
     0
281
     0
  0
CLASS
  1
MLEADERSTYLE
  2
AcDbMLeaderStyle
  3
ACDB_MLEADERSTYLE_CLASS
 90
     4095
280
     0
281
     0
  0
CLASS
  1
CELLSTYLEMAP
  2
AcDbCellStyleMap
  3
ObjectDBX Classes
 90
     1152
280
     0
281
     0
  0
CLASS
  1
SORTENTSTABLE
  2
AcDbSortentsTable
  3
ObjectDBX Classes
 90
    32768
280
     0
281
     0
  0
ENDSEC
  0
SECTION
  2
TABLES
  0
TABLE
  2
VPORT
  5
8
330
0
100
AcDbSymbolTable
 70
     1
  0
VPORT
  5
45AD8
330
8
100
AcDbSymbolTableRecord
100
AcDbViewportTableRecord
  2
*Active
 70
     0
 10
0.0
 20
0.0
 11
1.0
 21
1.0
 12
11255.96813782765
 22
958.6290730290784
 13
0.0
 23
0.0
 14
1.0
 24
1.0
 15
0.0
 25
0.0
 16
0.0
 26
0.0
 36
1.0
 17
0.0
 27
0.0
 37
0.0
 40
2399.273406702305
 41
1.953968253968254
 42
50.0
 43
0.0
 44
0.0
 50
0.0
 51
0.0
 71
     0
 72
   100
 73
     1
 74
     1
 75
     0
 76
     0
 77
     0
 78
     1
281
     0
 65
     1
110
0.0
120
0.0
130
0.0
111
1.0
121
0.0
131
0.0
112
0.0
122
1.0
132
0.0
 79
     0
146
0.0
  0
ENDTAB
  0
TABLE
  2
LTYPE
  5
5
330
0
100
AcDbSymbolTable
 70
     3
  0
LTYPE
  5
13
330
5
100
AcDbSymbolTableRecord
100
AcDbLinetypeTableRecord
  2
ByBlock
 70
     0
  3

 72
    65
 73
     0
 40
0.0
  0
LTYPE
  5
14
330
5
100
AcDbSymbolTableRecord
100
AcDbLinetypeTableRecord
  2
ByLayer
 70
     0
  3

 72
    65
 73
     0
 40
0.0
  0
LTYPE
  5
15
330
5
100
AcDbSymbolTableRecord
100
AcDbLinetypeTableRecord
  2
CONTINUOUS
 70
     0
  3
実線
 72
    65
 73
     0
 40
0.0
  0
LTYPE
  5
41244
330
5
100
AcDbSymbolTableRecord
100
AcDbLinetypeTableRecord
  2
CENTER
 70
     0
  3
____ _ ____ _ ____ _ ____ _ ____ _ ____ _ ____ 
 72
    65
 73
     4
 40
2.0
 49
1.25
 74
     0
 49
-0.25
 74
     0
 49
0.25
 74
     0
 49
-0.25
 74
     0
  0
LTYPE
  5
41245
330
5
100
AcDbSymbolTableRecord
100
AcDbLinetypeTableRecord
  2
HIDDEN2
 70
     0
  3
_ _ _ _ _ _ _ _ _ _ _ _ _ _ _ _ _ _ _ _ _ _ _ _
 72
    65
 73
     2
 40
0.1875
 49
0.125
 74
     0
 49
-0.0625
 74
     0
  0
ENDTAB
  0
TABLE
  2
LAYER
  5
2
102
{ACAD_XDICTIONARY
360
4BBD
102
}
330
0
100
AcDbSymbolTable
 70
    12
  0
LAYER
  5
10
102
{ACAD_XDICTIONARY
360
45B31
102
}
330
2
100
AcDbSymbolTableRecord
100
AcDbLayerTableRecord
  2
0
 70
     0
 62
     7
  6
CONTINUOUS
370
    -3
390
F
  0
LAYER
  5
4B58
330
2
100
AcDbSymbolTableRecord
100
AcDbLayerTableRecord
  2
Defpoints
 70
     0
 62
   250
  6
CONTINUOUS
290
     0
370
    -3
390
F
  0
LAYER
  5
4B92
102
{ACAD_XDICTIONARY
360
45B37
102
}
330
2
100
AcDbSymbolTableRecord
100
AcDbLayerTableRecord
  2
SUNPOU
 70
     0
 62
     5
  6
CONTINUOUS
370
    -3
390
F
  0
LAYER
  5
4B93
102
{ACAD_XDICTIONARY
360
45B39
102
}
330
2
100
AcDbSymbolTableRecord
100
AcDbLayerTableRecord
  2
000UV
 70
     0
 62
     7
  6
CONTINUOUS
370
    -3
390
F
  0
LAYER
  5
13A02
102
{ACAD_XDICTIONARY
360
45B43
102
}
330
2
100
AcDbSymbolTableRecord
100
AcDbLayerTableRecord
  2
VU
 70
     0
 62
     7
  6
CONTINUOUS
370
    -3
390
F
  0
LAYER
  5
41248
102
{ACAD_XDICTIONARY
360
45B51
102
}
330
2
100
AcDbSymbolTableRecord
100
AcDbLayerTableRecord
  2
文字
 70
     0
 62
     3
  6
CONTINUOUS
370
    -3
390
F
  0
LAYER
  5
41249
102
{ACAD_XDICTIONARY
360
45B53
102
}
330
2
100
AcDbSymbolTableRecord
100
AcDbLayerTableRecord
  2
寸法
 70
     0
 62
     4
  6
CONTINUOUS
370
    -3
390
F
  0
LAYER
  5
4124A
102
{ACAD_XDICTIONARY
360
45B55
102
}
330
2
100
AcDbSymbolTableRecord
100
AcDbLayerTableRecord
  2
外形１
 70
     0
 62
     7
  6
CONTINUOUS
370
    -3
390
F
  0
LAYER
  5
4124B
102
{ACAD_XDICTIONARY
360
45B57
102
}
330
2
100
AcDbSymbolTableRecord
100
AcDbLayerTableRecord
  2
センター
 70
     0
 62
     6
  6
CENTER
370
    -3
390
F
  0
LAYER
  5
4124C
102
{ACAD_XDICTIONARY
360
45B59
102
}
330
2
100
AcDbSymbolTableRecord
100
AcDbLayerTableRecord
  2
KAKURESEN
 70
     0
 62
   241
  6
HIDDEN2
370
    -3
390
F
  0
LAYER
  5
45C43
102
{ACAD_XDICTIONARY
360
45C44
102
}
330
2
100
AcDbSymbolTableRecord
100
AcDbLayerTableRecord
  2
枠
 70
     0
 62
    21
  6
CONTINUOUS
370
    -3
390
F
  0
LAYER
  5
45C45
102
{ACAD_XDICTIONARY
360
45C46
102
}
330
2
100
AcDbSymbolTableRecord
100
AcDbLayerTableRecord
  2
外形２
 70
     0
 62
     5
  6
CONTINUOUS
370
    -3
390
F
  0
ENDTAB
  0
TABLE
  2
STYLE
  5
3
330
0
100
AcDbSymbolTable
 70
     1
  0
STYLE
  5
11
330
3
100
AcDbSymbolTableRecord
100
AcDbTextStyleTableRecord
  2
STANDARD
 70
     0
 40
16.0
 41
1.0
 50
0.0
 71
     0
 42
15.0
  3
txt.shx
  4
bigfont.shx
  0
ENDTAB
  0
TABLE
  2
VIEW
  5
6
330
0
100
AcDbSymbolTable
 70
     0
  0
ENDTAB
  0
TABLE
  2
UCS
  5
7
330
0
100
AcDbSymbolTable
 70
     0
  0
ENDTAB
  0
TABLE
  2
APPID
  5
9
330
0
100
AcDbSymbolTable
 70
     8
  0
APPID
  5
12
330
9
100
AcDbSymbolTableRecord
100
AcDbRegAppTableRecord
  2
ACAD
 70
     0
  0
APPID
  5
45B2B
330
9
100
AcDbSymbolTableRecord
100
AcDbRegAppTableRecord
  2
ACAD_MLEADERVER
 70
     0
  0
APPID
  5
45C49
330
9
100
AcDbSymbolTableRecord
100
AcDbRegAppTableRecord
  2
ACAD_PSEXT
 70
     0
  0
APPID
  5
45C4A
330
9
100
AcDbSymbolTableRecord
100
AcDbRegAppTableRecord
  2
ACAD_DSTYLE_DIMRADIAL_EXTENSION
 70
     0
  0
APPID
  5
470AE
330
9
100
AcDbSymbolTableRecord
100
AcDbRegAppTableRecord
  2
ACAD_EXEMPT_FROM_CAD_STANDARDS
 70
     0
  0
APPID
  5
47228
330
9
100
AcDbSymbolTableRecord
100
AcDbRegAppTableRecord
  2
AcadAnnoPO
 70
     0
  0
APPID
  5
47229
330
9
100
AcDbSymbolTableRecord
100
AcDbRegAppTableRecord
  2
ACAD_DSTYLE_DIMJAG
 70
     0
  0
APPID
  5
4722A
330
9
100
AcDbSymbolTableRecord
100
AcDbRegAppTableRecord
  2
ACAD_DSTYLE_DIMTALN
 70
     0
  0
ENDTAB
  0
TABLE
  2
DIMSTYLE
  5
A
330
0
100
AcDbSymbolTable
 70
     2
100
AcDbDimStyleTable
 71
     2
340
4B75
340
26B8
  0
DIMSTYLE
105
26B8
330
A
100
AcDbSymbolTableRecord
100
AcDbDimStyleTableRecord
  2
Standard
 70
     0
340
11
  0
DIMSTYLE
105
4B75
102
{ACAD_REACTORS
330
46DE7
330
46D73
330
46CCC
330
46DE8
330
46D3F
330
46D3E
330
46D53
330
46CCE
330
46CCD
330
46D39
102
}
330
A
100
AcDbSymbolTableRecord
100
AcDbDimStyleTableRecord
  2
Standard 2
 70
     0
 41
10.0
 42
0.5
 43
10.0
 44
1.5
 73
     0
 74
     0
 77
     1
 78
     8
140
10.0
141
0.0
147
0.8
172
     1
175
     1
176
     4
177
     4
178
     3
271
     1
272
     1
340
11
341
41232
342
41232
1001
ACAD_DSTYLE_DIMJAG
1070
   388
1040
1.5
1001
ACAD_DSTYLE_DIMTALN
1070
   392
1070
     0
  0
ENDTAB
  0
TABLE
  2
BLOCK_RECORD
  5
1
330
0
100
AcDbSymbolTable
 70
    11
  0
BLOCK_RECORD
  5
1E
102
{ACAD_XDICTIONARY
360
26BB
102
}
330
1
100
AcDbSymbolTableRecord
100
AcDbBlockTableRecord
  2
*Model_Space
340
21
  0
BLOCK_RECORD
  5
1A
102
{ACAD_XDICTIONARY
360
26BD
102
}
330
1
100
AcDbSymbolTableRecord
100
AcDbBlockTableRecord
  2
*Paper_Space
340
1D
  0
BLOCK_RECORD
  5
41232
330
1
100
AcDbSymbolTableRecord
100
AcDbBlockTableRecord
  2
_OPEN
340
0
102
{BLKREFS
331
477E4
331
477E5
331
477ED
331
477EE
331
477F6
331
477F7
331
477FF
331
47800
331
47808
331
47809
331
47811
331
47812
331
4781A
331
4781B
331
47823
331
47824
331
4782C
331
4782D
331
47835
331
47836
102
}
  0
BLOCK_RECORD
  5
46E28
330
1
100
AcDbSymbolTableRecord
100
AcDbBlockTableRecord
  2
*D1
340
0
  0
BLOCK_RECORD
  5
46E34
330
1
100
AcDbSymbolTableRecord
100
AcDbBlockTableRecord
  2
*D2
340
0
  0
BLOCK_RECORD
  5
46E40
330
1
100
AcDbSymbolTableRecord
100
AcDbBlockTableRecord
  2
*D3
340
0
  0
BLOCK_RECORD
  5
46E65
330
1
100
AcDbSymbolTableRecord
100
AcDbBlockTableRecord
  2
*D4
340
0
  0
BLOCK_RECORD
  5
46E7D
330
1
100
AcDbSymbolTableRecord
100
AcDbBlockTableRecord
  2
*D5
340
0
  0
BLOCK_RECORD
  5
46E89
330
1
100
AcDbSymbolTableRecord
100
AcDbBlockTableRecord
  2
*D6
340
0
  0
BLOCK_RECORD
  5
46EC9
330
1
100
AcDbSymbolTableRecord
100
AcDbBlockTableRecord
  2
*D7
340
0
  0
BLOCK_RECORD
  5
46F08
330
1
100
AcDbSymbolTableRecord
100
AcDbBlockTableRecord
  2
*D8
340
0
  0
BLOCK_RECORD
  5
46F39
330
1
100
AcDbSymbolTableRecord
100
AcDbBlockTableRecord
  2
*D9
340
0
  0
BLOCK_RECORD
  5
46F45
330
1
100
AcDbSymbolTableRecord
100
AcDbBlockTableRecord
  2
*D10
340
0
  0
ENDTAB
  0
ENDSEC
  0
SECTION
  2
BLOCKS
  0
BLOCK
  5
1F
330
1E
100
AcDbEntity
  8
0
100
AcDbBlockBegin
  2
*Model_Space
 70
     0
 10
0.0
 20
0.0
 30
0.0
  3
*Model_Space
  1

  0
ENDBLK
  5
20
330
1E
100
AcDbEntity
  8
0
100
AcDbBlockEnd
  0
BLOCK
  5
1B
330
1A
100
AcDbEntity
 67
     1
  8
0
100
AcDbBlockBegin
  2
*Paper_Space
 70
     0
 10
0.0
 20
0.0
 30
0.0
  3
*Paper_Space
  1

  0
ENDBLK
  5
1C
330
1A
100
AcDbEntity
 67
     1
  8
0
100
AcDbBlockEnd
  0
BLOCK
  5
41236
330
41232
100
AcDbEntity
  8
0
100
AcDbBlockBegin
  2
_OPEN
 70
     0
 10
0.0
 20
0.0
 30
0.0
  3
_OPEN
  1

  0
LINE
  5
41233
330
41232
100
AcDbEntity
  8
0
  6
ByBlock
 62
     0
100
AcDbLine
 10
-1.0
 20
0.1666666666666666
 30
0.0
 11
0.0
 21
0.0
 31
0.0
  0
LINE
  5
41234
330
41232
100
AcDbEntity
  8
0
  6
ByBlock
 62
     0
100
AcDbLine
 10
0.0
 20
0.0
 30
0.0
 11
-1.0
 21
-0.1666666666666666
 31
0.0
  0
LINE
  5
41235
330
41232
100
AcDbEntity
  8
0
  6
ByBlock
 62
     0
100
AcDbLine
 10
0.0
 20
0.0
 30
0.0
 11
-1.0
 21
0.0
 31
0.0
  0
ENDBLK
  5
41237
330
41232
100
AcDbEntity
  8
0
100
AcDbBlockEnd
  0
BLOCK
  5
46E29
330
46E28
100
AcDbEntity
  8
0
100
AcDbBlockBegin
  2
*D1
 70
     1
 10
0.0
 20
0.0
 30
0.0
  3
*D1
  1

  0
LINE
  5
477F3
330
46E28
100
AcDbEntity
  8
SUNPOU
 62
     4
370
    -2
100
AcDbLine
 10
11837.7152496486
 20
136.1340557819931
 30
0.0
 11
11948.76838867654
 21
136.134055781993
 31
0.0
  0
LINE
  5
477F4
330
46E28
100
AcDbEntity
  8
SUNPOU
 62
     4
370
    -2
100
AcDbLine
 10
11837.7152496486
 20
1156.134055781993
 30
0.0
 11
11948.76838867654
 21
1156.134055781993
 31
0.0
  0
LINE
  5
477F5
330
46E28
100
AcDbEntity
  8
SUNPOU
 62
     4
370
    -2
100
AcDbLine
 10
11947.26838867653
 20
146.134055781993
 30
0.0
 11
11947.26838867653
 21
1146.134055781993
 31
0.0
  0
INSERT
  5
477F6
330
46E28
100
AcDbEntity
  8
SUNPOU
 62
     4
370
    -2
100
AcDbBlockReference
  2
_OPEN
 10
11947.26838867653
 20
136.134055781993
 30
0.0
 41
10.0
 42
10.0
 43
10.0
 50
270.0
  0
INSERT
  5
477F7
330
46E28
100
AcDbEntity
  8
SUNPOU
 62
     4
370
    -2
100
AcDbBlockReference
  2
_OPEN
 10
11947.26838867653
 20
1156.134055781993
 30
0.0
 41
10.0
 42
10.0
 43
10.0
 50
90.0
  0
MTEXT
  5
477F8
330
46E28
100
AcDbEntity
  8
SUNPOU
 62
     3
100
AcDbMText
 10
11938.46838867653
 20
646.1340557819951
 30
0.0
 40
16.0
 41
0.0
 71
     5
 72
     1
  1
\A1;1020
 11
0.0000000000000001
 21
1.0
 31
0.0
 73
     1
 44
1.0
1001
ACAD
1000
MTEXTBEGIN
1070
    73
1070
     1
1070
    44
1040
1.0
1070
    74
1070
     0
1000
MTEXTEND
  0
POINT
  5
477F9
330
46E28
100
AcDbEntity
  8
Defpoints
 62
     0
100
AcDbPoint
 10
11837.2152496486
 20
136.1340557819931
 30
0.0
  0
POINT
  5
477FA
330
46E28
100
AcDbEntity
  8
Defpoints
 62
     0
100
AcDbPoint
 10
11837.2152496486
 20
1156.134055781993
 30
0.0
  0
POINT
  5
477FB
330
46E28
100
AcDbEntity
  8
Defpoints
 62
     0
100
AcDbPoint
 10
11947.26838867653
 20
1156.134055781993
 30
0.0
  0
ENDBLK
  5
46E2A
330
46E28
100
AcDbEntity
  8
0
100
AcDbBlockEnd
  0
BLOCK
  5
46E35
330
46E34
100
AcDbEntity
  8
0
100
AcDbBlockBegin
  2
*D2
 70
     1
 10
0.0
 20
0.0
 30
0.0
  3
*D2
  1

  0
LINE
  5
47829
330
46E34
100
AcDbEntity
  8
SUNPOU
 62
     4
370
    -2
100
AcDbLine
 10
10873.63981267156
 20
1156.134055781993
 30
0.0
 11
10749.78615155871
 21
1156.134055781993
 31
0.0
  0
LINE
  5
4782A
330
46E34
100
AcDbEntity
  8
SUNPOU
 62
     4
370
    -2
100
AcDbLine
 10
10873.63981267156
 20
136.1340557819931
 30
0.0
 11
10749.78615155871
 21
136.1340557819931
 31
0.0
  0
LINE
  5
4782B
330
46E34
100
AcDbEntity
  8
SUNPOU
 62
     4
370
    -2
100
AcDbLine
 10
10751.28615155871
 20
1146.134055781993
 30
0.0
 11
10751.28615155871
 21
146.1340557819931
 31
0.0
  0
INSERT
  5
4782C
330
46E34
100
AcDbEntity
  8
SUNPOU
 62
     4
370
    -2
100
AcDbBlockReference
  2
_OPEN
 10
10751.28615155871
 20
1156.134055781993
 30
0.0
 41
10.0
 42
10.0
 43
10.0
 50
90.0
  0
INSERT
  5
4782D
330
46E34
100
AcDbEntity
  8
SUNPOU
 62
     4
370
    -2
100
AcDbBlockReference
  2
_OPEN
 10
10751.28615155871
 20
136.1340557819931
 30
0.0
 41
10.0
 42
10.0
 43
10.0
 50
270.0
  0
MTEXT
  5
4782E
330
46E34
100
AcDbEntity
  8
SUNPOU
 62
     3
100
AcDbMText
 10
10742.48615155871
 20
646.1340557819949
 30
0.0
 40
16.0
 41
0.0
 71
     5
 72
     1
  1
\A1;1020
 11
0.0000000000000001
 21
1.0
 31
0.0
 73
     1
 44
1.0
1001
ACAD
1000
MTEXTBEGIN
1070
    73
1070
     1
1070
    44
1040
1.0
1070
    74
1070
     0
1000
MTEXTEND
  0
POINT
  5
4782F
330
46E34
100
AcDbEntity
  8
Defpoints
 62
     0
100
AcDbPoint
 10
10874.13981267156
 20
1156.134055781993
 30
0.0
  0
POINT
  5
47830
330
46E34
100
AcDbEntity
  8
Defpoints
 62
     0
100
AcDbPoint
 10
10874.13981267156
 20
136.1340557819931
 30
0.0
  0
POINT
  5
47831
330
46E34
100
AcDbEntity
  8
Defpoints
 62
     0
100
AcDbPoint
 10
10751.28615155871
 20
136.1340557819931
 30
0.0
  0
ENDBLK
  5
46E36
330
46E34
100
AcDbEntity
  8
0
100
AcDbBlockEnd
  0
BLOCK
  5
46E41
330
46E40
100
AcDbEntity
  8
0
100
AcDbBlockBegin
  2
*D3
 70
     1
 10
0.0
 20
0.0
 30
0.0
  3
*D3
  1

  0
LINE
  5
47820
330
46E40
100
AcDbEntity
  8
SUNPOU
 62
     4
370
    -2
100
AcDbLine
 10
10883.63981267156
 20
1146.134055781993
 30
0.0
 11
10793.94494981012
 21
1146.134055781993
 31
0.0
  0
LINE
  5
47821
330
46E40
100
AcDbEntity
  8
SUNPOU
 62
     4
370
    -2
100
AcDbLine
 10
10883.63981267156
 20
146.134055781993
 30
0.0
 11
10793.94494981012
 21
146.1340557819931
 31
0.0
  0
LINE
  5
47822
330
46E40
100
AcDbEntity
  8
SUNPOU
 62
     4
370
    -2
100
AcDbLine
 10
10795.44494981012
 20
1136.134055781993
 30
0.0
 11
10795.44494981012
 21
156.1340557819931
 31
0.0
  0
INSERT
  5
47823
330
46E40
100
AcDbEntity
  8
SUNPOU
 62
     4
370
    -2
100
AcDbBlockReference
  2
_OPEN
 10
10795.44494981012
 20
1146.134055781993
 30
0.0
 41
10.0
 42
10.0
 43
10.0
 50
90.0
  0
INSERT
  5
47824
330
46E40
100
AcDbEntity
  8
SUNPOU
 62
     4
370
    -2
100
AcDbBlockReference
  2
_OPEN
 10
10795.44494981012
 20
146.1340557819931
 30
0.0
 41
10.0
 42
10.0
 43
10.0
 50
270.0
  0
MTEXT
  5
47825
330
46E40
100
AcDbEntity
  8
SUNPOU
 62
     3
100
AcDbMText
 10
10786.64494981012
 20
646.1340557819949
 30
0.0
 40
16.0
 41
0.0
 71
     5
 72
     1
  1
\A1;1000
 11
0.0000000000000001
 21
1.0
 31
0.0
 73
     1
 44
1.0
1001
ACAD
1000
MTEXTBEGIN
1070
    73
1070
     1
1070
    44
1040
1.0
1070
    74
1070
     0
1000
MTEXTEND
  0
POINT
  5
47826
330
46E40
100
AcDbEntity
  8
Defpoints
 62
     0
100
AcDbPoint
 10
10884.13981267156
 20
1146.134055781993
 30
0.0
  0
POINT
  5
47827
330
46E40
100
AcDbEntity
  8
Defpoints
 62
     0
100
AcDbPoint
 10
10884.13981267156
 20
146.134055781993
 30
0.0
  0
POINT
  5
47828
330
46E40
100
AcDbEntity
  8
Defpoints
 62
     0
100
AcDbPoint
 10
10795.44494981012
 20
146.1340557819931
 30
0.0
  0
ENDBLK
  5
46E42
330
46E40
100
AcDbEntity
  8
0
100
AcDbBlockEnd
  0
BLOCK
  5
46E66
330
46E65
100
AcDbEntity
  8
0
100
AcDbBlockBegin
  2
*D4
 70
     1
 10
0.0
 20
0.0
 30
0.0
  3
*D4
  1

  0
LINE
  5
47832
330
46E65
100
AcDbEntity
  8
SUNPOU
 62
     4
370
    -2
100
AcDbLine
 10
10874.13981267156
 20
1766.918198445974
 30
0.0
 11
10874.13981267156
 21
1845.528017115808
 31
0.0
  0
LINE
  5
47833
330
46E65
100
AcDbEntity
  8
SUNPOU
 62
     4
370
    -2
100
AcDbLine
 10
11294.13981267156
 20
1766.918198445974
 30
0.0
 11
11294.13981267156
 21
1845.528017115808
 31
0.0
  0
LINE
  5
47834
330
46E65
100
AcDbEntity
  8
SUNPOU
 62
     4
370
    -2
100
AcDbLine
 10
10884.13981267156
 20
1844.028017115808
 30
0.0
 11
11284.13981267156
 21
1844.028017115808
 31
0.0
  0
INSERT
  5
47835
330
46E65
100
AcDbEntity
  8
SUNPOU
 62
     4
370
    -2
100
AcDbBlockReference
  2
_OPEN
 10
10874.13981267156
 20
1844.028017115808
 30
0.0
 41
10.0
 42
10.0
 43
10.0
 50
180.0
  0
INSERT
  5
47836
330
46E65
100
AcDbEntity
  8
SUNPOU
 62
     4
370
    -2
100
AcDbBlockReference
  2
_OPEN
 10
11294.13981267156
 20
1844.028017115808
 30
0.0
 41
10.0
 42
10.0
 43
10.0
  0
MTEXT
  5
47837
330
46E65
100
AcDbEntity
  8
SUNPOU
 62
     3
100
AcDbMText
 10
11077.61321477617
 20
1852.828017115808
 30
0.0
 40
16.0
 41
0.0
 71
     5
 72
     1
  1
\A1;420
 73
     1
 44
1.0
1001
ACAD
1000
MTEXTBEGIN
1070
    73
1070
     1
1070
    44
1040
1.0
1070
    74
1070
     0
1000
MTEXTEND
  0
POINT
  5
47838
330
46E65
100
AcDbEntity
  8
Defpoints
 62
     0
100
AcDbPoint
 10
10874.13981267156
 20
1766.418198445974
 30
0.0
  0
POINT
  5
47839
330
46E65
100
AcDbEntity
  8
Defpoints
 62
     0
100
AcDbPoint
 10
11294.13981267156
 20
1766.418198445974
 30
0.0
  0
POINT
  5
4783A
330
46E65
100
AcDbEntity
  8
Defpoints
 62
     0
100
AcDbPoint
 10
11294.13981267156
 20
1844.028017115808
 30
0.0
  0
ENDBLK
  5
46E67
330
46E65
100
AcDbEntity
  8
0
100
AcDbBlockEnd
  0
BLOCK
  5
46E7E
330
46E7D
100
AcDbEntity
  8
0
100
AcDbBlockBegin
  2
*D5
 70
     1
 10
0.0
 20
0.0
 30
0.0
  3
*D5
  1

  0
LINE
  5
4780E
330
46E7D
100
AcDbEntity
  8
SUNPOU
 62
     4
370
    -2
100
AcDbLine
 10
10884.13981267156
 20
1146.634055781993
 30
0.0
 11
10884.13981267156
 21
1241.069050657968
 31
0.0
  0
LINE
  5
4780F
330
46E7D
100
AcDbEntity
  8
SUNPOU
 62
     4
370
    -2
100
AcDbLine
 10
11284.13981267156
 20
1146.634055781993
 30
0.0
 11
11284.13981267156
 21
1241.069050657968
 31
0.0
  0
LINE
  5
47810
330
46E7D
100
AcDbEntity
  8
SUNPOU
 62
     4
370
    -2
100
AcDbLine
 10
10894.13981267156
 20
1239.569050657968
 30
0.0
 11
11274.13981267156
 21
1239.569050657968
 31
0.0
  0
INSERT
  5
47811
330
46E7D
100
AcDbEntity
  8
SUNPOU
 62
     4
370
    -2
100
AcDbBlockReference
  2
_OPEN
 10
10884.13981267156
 20
1239.569050657968
 30
0.0
 41
10.0
 42
10.0
 43
10.0
 50
180.0
  0
INSERT
  5
47812
330
46E7D
100
AcDbEntity
  8
SUNPOU
 62
     4
370
    -2
100
AcDbBlockReference
  2
_OPEN
 10
11284.13981267156
 20
1239.569050657968
 30
0.0
 41
10.0
 42
10.0
 43
10.0
  0
MTEXT
  5
47813
330
46E7D
100
AcDbEntity
  8
SUNPOU
 62
     3
100
AcDbMText
 10
11084.13981267156
 20
1248.369050657968
 30
0.0
 40
16.0
 41
0.0
 71
     5
 72
     1
  1
\A1;400
 73
     1
 44
1.0
1001
ACAD
1000
MTEXTBEGIN
1070
    73
1070
     1
1070
    44
1040
1.0
1070
    74
1070
     0
1000
MTEXTEND
  0
POINT
  5
47814
330
46E7D
100
AcDbEntity
  8
Defpoints
 62
     0
100
AcDbPoint
 10
10884.13981267156
 20
1146.134055781993
 30
0.0
  0
POINT
  5
47815
330
46E7D
100
AcDbEntity
  8
Defpoints
 62
     0
100
AcDbPoint
 10
11284.13981267156
 20
1146.134055781993
 30
0.0
  0
POINT
  5
47816
330
46E7D
100
AcDbEntity
  8
Defpoints
 62
     0
100
AcDbPoint
 10
11284.13981267156
 20
1239.569050657968
 30
0.0
  0
ENDBLK
  5
46E7F
330
46E7D
100
AcDbEntity
  8
0
100
AcDbBlockEnd
  0
BLOCK
  5
46E8A
330
46E89
100
AcDbEntity
  8
0
100
AcDbBlockBegin
  2
*D6
 70
     1
 10
0.0
 20
0.0
 30
0.0
  3
*D6
  1

  0
LINE
  5
47805
330
46E89
100
AcDbEntity
  8
SUNPOU
 62
     4
370
    -2
100
AcDbLine
 10
10886.13981267156
 20
1144.634055781993
 30
0.0
 11
10886.13981267156
 21
1198.921213179563
 31
0.0
  0
LINE
  5
47806
330
46E89
100
AcDbEntity
  8
SUNPOU
 62
     4
370
    -2
100
AcDbLine
 10
11082.13981267156
 20
1144.634055781993
 30
0.0
 11
11082.13981267156
 21
1198.921213179563
 31
0.0
  0
LINE
  5
47807
330
46E89
100
AcDbEntity
  8
SUNPOU
 62
     4
370
    -2
100
AcDbLine
 10
10896.13981267156
 20
1197.421213179563
 30
0.0
 11
11072.13981267156
 21
1197.421213179563
 31
0.0
  0
INSERT
  5
47808
330
46E89
100
AcDbEntity
  8
SUNPOU
 62
     4
370
    -2
100
AcDbBlockReference
  2
_OPEN
 10
10886.13981267156
 20
1197.421213179563
 30
0.0
 41
10.0
 42
10.0
 43
10.0
 50
180.0
  0
INSERT
  5
47809
330
46E89
100
AcDbEntity
  8
SUNPOU
 62
     4
370
    -2
100
AcDbBlockReference
  2
_OPEN
 10
11082.13981267156
 20
1197.421213179563
 30
0.0
 41
10.0
 42
10.0
 43
10.0
  0
MTEXT
  5
4780A
330
46E89
100
AcDbEntity
  8
SUNPOU
 62
     3
100
AcDbMText
 10
10984.13981267156
 20
1206.221213179563
 30
0.0
 40
16.0
 41
0.0
 71
     5
 72
     1
  1
\A1;196
 73
     1
 44
1.0
1001
ACAD
1000
MTEXTBEGIN
1070
    73
1070
     1
1070
    44
1040
1.0
1070
    74
1070
     0
1000
MTEXTEND
  0
POINT
  5
4780B
330
46E89
100
AcDbEntity
  8
Defpoints
 62
     0
100
AcDbPoint
 10
10886.13981267156
 20
1144.134055781993
 30
0.0
  0
POINT
  5
4780C
330
46E89
100
AcDbEntity
  8
Defpoints
 62
     0
100
AcDbPoint
 10
11082.13981267156
 20
1144.134055781993
 30
0.0
  0
POINT
  5
4780D
330
46E89
100
AcDbEntity
  8
Defpoints
 62
     0
100
AcDbPoint
 10
11082.13981267156
 20
1197.421213179563
 30
0.0
  0
ENDBLK
  5
46E8B
330
46E89
100
AcDbEntity
  8
0
100
AcDbBlockEnd
  0
BLOCK
  5
46ECA
330
46EC9
100
AcDbEntity
  8
0
100
AcDbBlockBegin
  2
*D7
 70
     1
 10
0.0
 20
0.0
 30
0.0
  3
*D7
  1

  0
LINE
  5
47817
330
46EC9
100
AcDbEntity
  8
SUNPOU
 62
     4
370
    -2
100
AcDbLine
 10
10885.63981267156
 20
1144.134055781993
 30
0.0
 11
10836.89640429387
 21
1144.134055781993
 31
0.0
  0
LINE
  5
47818
330
46EC9
100
AcDbEntity
  8
SUNPOU
 62
     4
370
    -2
100
AcDbLine
 10
10885.63981267156
 20
948.1340557819931
 30
0.0
 11
10836.89640429387
 21
948.1340557819931
 31
0.0
  0
LINE
  5
47819
330
46EC9
100
AcDbEntity
  8
SUNPOU
 62
     4
370
    -2
100
AcDbLine
 10
10838.39640429387
 20
1134.134055781993
 30
0.0
 11
10838.39640429387
 21
958.1340557819931
 31
0.0
  0
INSERT
  5
4781A
330
46EC9
100
AcDbEntity
  8
SUNPOU
 62
     4
370
    -2
100
AcDbBlockReference
  2
_OPEN
 10
10838.39640429387
 20
1144.134055781993
 30
0.0
 41
10.0
 42
10.0
 43
10.0
 50
90.0
  0
INSERT
  5
4781B
330
46EC9
100
AcDbEntity
  8
SUNPOU
 62
     4
370
    -2
100
AcDbBlockReference
  2
_OPEN
 10
10838.39640429387
 20
948.1340557819931
 30
0.0
 41
10.0
 42
10.0
 43
10.0
 50
270.0
  0
MTEXT
  5
4781C
330
46EC9
100
AcDbEntity
  8
SUNPOU
 62
     3
100
AcDbMText
 10
10829.59640429387
 20
1046.134055781995
 30
0.0
 40
16.0
 41
0.0
 71
     5
 72
     1
  1
\A1;196
 11
0.0000000000000001
 21
1.0
 31
0.0
 73
     1
 44
1.0
1001
ACAD
1000
MTEXTBEGIN
1070
    73
1070
     1
1070
    44
1040
1.0
1070
    74
1070
     0
1000
MTEXTEND
  0
POINT
  5
4781D
330
46EC9
100
AcDbEntity
  8
Defpoints
 62
     0
100
AcDbPoint
 10
10886.13981267156
 20
1144.134055781993
 30
0.0
  0
POINT
  5
4781E
330
46EC9
100
AcDbEntity
  8
Defpoints
 62
     0
100
AcDbPoint
 10
10886.13981267156
 20
948.1340557819931
 30
0.0
  0
POINT
  5
4781F
330
46EC9
100
AcDbEntity
  8
Defpoints
 62
     0
100
AcDbPoint
 10
10838.39640429387
 20
948.1340557819931
 30
0.0
  0
ENDBLK
  5
46ECB
330
46EC9
100
AcDbEntity
  8
0
100
AcDbBlockEnd
  0
BLOCK
  5
46F09
330
46F08
100
AcDbEntity
  8
0
100
AcDbBlockBegin
  2
*D8
 70
     1
 10
0.0
 20
0.0
 30
0.0
  3
*D8
  1

  0
LINE
  5
477EA
330
46F08
100
AcDbEntity
  8
SUNPOU
 62
     4
370
    -2
100
AcDbLine
 10
11687.2152496486
 20
1156.634055781993
 30
0.0
 11
11687.2152496486
 21
1235.977473162424
 31
0.0
  0
LINE
  5
477EB
330
46F08
100
AcDbEntity
  8
SUNPOU
 62
     4
370
    -2
100
AcDbLine
 10
11837.2152496486
 20
1156.634055781993
 30
0.0
 11
11837.2152496486
 21
1235.977473162424
 31
0.0
  0
LINE
  5
477EC
330
46F08
100
AcDbEntity
  8
SUNPOU
 62
     4
370
    -2
100
AcDbLine
 10
11697.2152496486
 20
1234.477473162424
 30
0.0
 11
11827.2152496486
 21
1234.477473162424
 31
0.0
  0
INSERT
  5
477ED
330
46F08
100
AcDbEntity
  8
SUNPOU
 62
     4
370
    -2
100
AcDbBlockReference
  2
_OPEN
 10
11687.2152496486
 20
1234.477473162424
 30
0.0
 41
10.0
 42
10.0
 43
10.0
 50
180.0
  0
INSERT
  5
477EE
330
46F08
100
AcDbEntity
  8
SUNPOU
 62
     4
370
    -2
100
AcDbBlockReference
  2
_OPEN
 10
11837.2152496486
 20
1234.477473162424
 30
0.0
 41
10.0
 42
10.0
 43
10.0
  0
MTEXT
  5
477EF
330
46F08
100
AcDbEntity
  8
SUNPOU
 62
     3
100
AcDbMText
 10
11762.21524964859
 20
1243.277473162424
 30
0.0
 40
16.0
 41
0.0
 71
     5
 72
     1
  1
\A1;150
 73
     1
 44
1.0
1001
ACAD
1000
MTEXTBEGIN
1070
    73
1070
     1
1070
    44
1040
1.0
1070
    74
1070
     0
1000
MTEXTEND
  0
POINT
  5
477F0
330
46F08
100
AcDbEntity
  8
Defpoints
 62
     0
100
AcDbPoint
 10
11687.2152496486
 20
1156.134055781993
 30
0.0
  0
POINT
  5
477F1
330
46F08
100
AcDbEntity
  8
Defpoints
 62
     0
100
AcDbPoint
 10
11837.2152496486
 20
1156.134055781993
 30
0.0
  0
POINT
  5
477F2
330
46F08
100
AcDbEntity
  8
Defpoints
 62
     0
100
AcDbPoint
 10
11837.2152496486
 20
1234.477473162424
 30
0.0
  0
ENDBLK
  5
46F0A
330
46F08
100
AcDbEntity
  8
0
100
AcDbBlockEnd
  0
BLOCK
  5
46F3A
330
46F39
100
AcDbEntity
  8
0
100
AcDbBlockBegin
  2
*D9
 70
     1
 10
0.0
 20
0.0
 30
0.0
  3
*D9
  1

  0
LINE
  5
477E1
330
46F39
100
AcDbEntity
  8
SUNPOU
 62
     4
370
    -2
100
AcDbLine
 10
10873.63981267156
 20
1766.418198445974
 30
0.0
 11
10780.91225969554
 21
1766.418198445974
 31
0.0
  0
LINE
  5
477E2
330
46F39
100
AcDbEntity
  8
SUNPOU
 62
     4
370
    -2
100
AcDbLine
 10
10873.63981267156
 20
1616.418198445973
 30
0.0
 11
10780.91225969554
 21
1616.418198445973
 31
0.0
  0
LINE
  5
477E3
330
46F39
100
AcDbEntity
  8
SUNPOU
 62
     4
370
    -2
100
AcDbLine
 10
10782.41225969554
 20
1756.418198445973
 30
0.0
 11
10782.41225969554
 21
1626.418198445973
 31
0.0
  0
INSERT
  5
477E4
330
46F39
100
AcDbEntity
  8
SUNPOU
 62
     4
370
    -2
100
AcDbBlockReference
  2
_OPEN
 10
10782.41225969554
 20
1766.418198445974
 30
0.0
 41
10.0
 42
10.0
 43
10.0
 50
90.0
  0
INSERT
  5
477E5
330
46F39
100
AcDbEntity
  8
SUNPOU
 62
     4
370
    -2
100
AcDbBlockReference
  2
_OPEN
 10
10782.41225969554
 20
1616.418198445973
 30
0.0
 41
10.0
 42
10.0
 43
10.0
 50
270.0
  0
MTEXT
  5
477E6
330
46F39
100
AcDbEntity
  8
SUNPOU
 62
     3
100
AcDbMText
 10
10773.61225969554
 20
1691.418198445975
 30
0.0
 40
16.0
 41
0.0
 71
     5
 72
     1
  1
\A1;150
 11
0.0000000000000001
 21
1.0
 31
0.0
 73
     1
 44
1.0
1001
ACAD
1000
MTEXTBEGIN
1070
    73
1070
     1
1070
    44
1040
1.0
1070
    74
1070
     0
1000
MTEXTEND
  0
POINT
  5
477E7
330
46F39
100
AcDbEntity
  8
Defpoints
 62
     0
100
AcDbPoint
 10
10874.13981267156
 20
1766.418198445974
 30
0.0
  0
POINT
  5
477E8
330
46F39
100
AcDbEntity
  8
Defpoints
 62
     0
100
AcDbPoint
 10
10874.13981267156
 20
1616.418198445973
 30
0.0
  0
POINT
  5
477E9
330
46F39
100
AcDbEntity
  8
Defpoints
 62
     0
100
AcDbPoint
 10
10782.41225969554
 20
1616.418198445973
 30
0.0
  0
ENDBLK
  5
46F3B
330
46F39
100
AcDbEntity
  8
0
100
AcDbBlockEnd
  0
BLOCK
  5
46F46
330
46F45
100
AcDbEntity
  8
0
100
AcDbBlockBegin
  2
*D10
 70
     1
 10
0.0
 20
0.0
 30
0.0
  3
*D10
  1

  0
LINE
  5
477FC
330
46F45
100
AcDbEntity
  8
SUNPOU
 62
     4
370
    -2
100
AcDbLine
 10
10874.13981267156
 20
1158.634055781993
 30
0.0
 11
10874.13981267156
 21
1283.062297132885
 31
0.0
  0
LINE
  5
477FD
330
46F45
100
AcDbEntity
  8
SUNPOU
 62
     4
370
    -2
100
AcDbLine
 10
11294.13981267156
 20
1158.634055781993
 30
0.0
 11
11294.13981267156
 21
1283.062297132885
 31
0.0
  0
LINE
  5
477FE
330
46F45
100
AcDbEntity
  8
SUNPOU
 62
     4
370
    -2
100
AcDbLine
 10
10884.13981267156
 20
1281.562297132886
 30
0.0
 11
11284.13981267156
 21
1281.562297132886
 31
0.0
  0
INSERT
  5
477FF
330
46F45
100
AcDbEntity
  8
SUNPOU
 62
     4
370
    -2
100
AcDbBlockReference
  2
_OPEN
 10
10874.13981267156
 20
1281.562297132886
 30
0.0
 41
10.0
 42
10.0
 43
10.0
 50
180.0
  0
INSERT
  5
47800
330
46F45
100
AcDbEntity
  8
SUNPOU
 62
     4
370
    -2
100
AcDbBlockReference
  2
_OPEN
 10
11294.13981267156
 20
1281.562297132886
 30
0.0
 41
10.0
 42
10.0
 43
10.0
  0
MTEXT
  5
47801
330
46F45
100
AcDbEntity
  8
SUNPOU
 62
     3
100
AcDbMText
 10
11084.13981267156
 20
1290.362297132886
 30
0.0
 40
16.0
 41
0.0
 71
     5
 72
     1
  1
\A1;420
 73
     1
 44
1.0
1001
ACAD
1000
MTEXTBEGIN
1070
    73
1070
     1
1070
    44
1040
1.0
1070
    74
1070
     0
1000
MTEXTEND
  0
POINT
  5
47802
330
46F45
100
AcDbEntity
  8
Defpoints
 62
     0
100
AcDbPoint
 10
10874.13981267156
 20
1158.134055781993
 30
0.0
  0
POINT
  5
47803
330
46F45
100
AcDbEntity
  8
Defpoints
 62
     0
100
AcDbPoint
 10
11294.13981267156
 20
1158.134055781993
 30
0.0
  0
POINT
  5
47804
330
46F45
100
AcDbEntity
  8
Defpoints
 62
     0
100
AcDbPoint
 10
11294.13981267156
 20
1281.562297132886
 30
0.0
  0
ENDBLK
  5
46F47
330
46F45
100
AcDbEntity
  8
0
100
AcDbBlockEnd
  0
ENDSEC
  0
SECTION
  2
ENTITIES
  0
LINE
  5
46CC9
330
1E
100
AcDbEntity
  8
KAKURESEN
 48
30.0
100
AcDbLine
 10
11697.2152496486
 20
744.134055781993
 30
0.0
 11
11697.2152496486
 21
544.134055781993
 31
0.0
  0
LINE
  5
46CCA
330
1E
100
AcDbEntity
  8
VU
100
AcDbLine
 10
11687.2152496486
 20
1156.134055781993
 30
0.0
 11
11687.2152496486
 21
136.1340557819931
 31
0.0
  0
LINE
  5
46CCB
330
1E
100
AcDbEntity
  8
VU
100
AcDbLine
 10
11837.2152496486
 20
1156.134055781993
 30
0.0
 11
11837.2152496486
 21
136.1340557819931
 31
0.0
  0
DIMENSION
  5
46CCC
330
1E
100
AcDbEntity
  8
SUNPOU
100
AcDbDimension
  2
*D1
 10
11947.26838867653
 20
1156.134055781993
 30
0.0
 11
11938.46838867653
 21
646.1340557819951
 31
0.0
 70
    32
 71
     5
 42
1020.0
  3
Standard 2
100
AcDbAlignedDimension
 13
11837.2152496486
 23
136.1340557819931
 33
0.0
 14
11837.2152496486
 24
1156.134055781993
 34
0.0
 50
90.0
100
AcDbRotatedDimension
1001
ACAD
1000
DSTYLE
1002
{
1070
   140
1040
16.0
1002
}
  0
DIMENSION
  5
46CCD
330
1E
100
AcDbEntity
  8
SUNPOU
100
AcDbDimension
  2
*D2
 10
10751.28615155871
 20
136.1340557819931
 30
0.0
 11
10742.48615155871
 21
646.1340557819949
 31
0.0
 70
    32
 71
     5
 42
1020.0
  3
Standard 2
100
AcDbAlignedDimension
 13
10874.13981267156
 23
1156.134055781993
 33
0.0
 14
10874.13981267156
 24
136.1340557819931
 34
0.0
 50
90.0
100
AcDbRotatedDimension
1001
ACAD
1000
DSTYLE
1002
{
1070
   140
1040
16.0
1002
}
  0
DIMENSION
  5
46CCE
330
1E
100
AcDbEntity
  8
SUNPOU
100
AcDbDimension
  2
*D3
 10
10795.44494981012
 20
146.1340557819931
 30
0.0
 11
10786.64494981012
 21
646.1340557819949
 31
0.0
 70
    32
 71
     5
 42
1000.0
  3
Standard 2
100
AcDbAlignedDimension
 13
10884.13981267156
 23
1146.134055781993
 33
0.0
 14
10884.13981267156
 24
146.134055781993
 34
0.0
 50
90.0
100
AcDbRotatedDimension
1001
ACAD
1000
DSTYLE
1002
{
1070
   140
1040
16.0
1002
}
  0
LWPOLYLINE
  5
46CCF
330
1E
100
AcDbEntity
  8
外形１
 48
20.0
100
AcDbPolyline
 90
        4
 70
     1
 43
0.0
 10
10884.13981267156
 20
1146.134055781993
 10
11284.13981267156
 20
1146.134055781993
 10
11284.13981267156
 20
146.134055781993
 10
10884.13981267156
 20
146.134055781993
  0
LWPOLYLINE
  5
46CD0
330
1E
100
AcDbEntity
  8
外形１
 48
20.0
100
AcDbPolyline
 90
        4
 70
     1
 43
0.0
 10
10874.13981267156
 20
1156.134055781993
 10
11294.13981267156
 20
1156.134055781993
 10
11294.13981267156
 20
136.1340557819931
 10
10874.13981267156
 20
136.1340557819931
  0
LWPOLYLINE
  5
46CD1
330
1E
100
AcDbEntity
  8
外形１
 48
20.0
100
AcDbPolyline
 90
        4
 70
     1
 43
0.0
 10
11086.13981267156
 20
744.134055781993
 10
11282.13981267156
 20
744.134055781993
 10
11282.13981267156
 20
548.1340557819931
 10
11086.13981267156
 20
548.1340557819931
  0
LINE
  5
46CD2
330
1E
100
AcDbEntity
  8
センター
 48
30.0
100
AcDbLine
 10
11282.13981267156
 20
646.134055781993
 30
0.0
 11
11086.13981267156
 21
548.1340557819931
 31
0.0
  0
LWPOLYLINE
  5
46CD3
330
1E
100
AcDbEntity
  8
外形１
 48
20.0
100
AcDbPolyline
 90
        4
 70
     1
 43
0.0
 10
10886.13981267156
 20
744.134055781993
 10
11082.13981267156
 20
744.134055781993
 10
11082.13981267156
 20
548.1340557819931
 10
10886.13981267156
 20
548.1340557819931
  0
LINE
  5
46CD4
330
1E
100
AcDbEntity
  8
センター
 48
30.0
100
AcDbLine
 10
11082.13981267156
 20
646.134055781993
 30
0.0
 11
10886.13981267156
 21
548.1340557819931
 31
0.0
  0
LWPOLYLINE
  5
46CD5
330
1E
100
AcDbEntity
  8
外形１
 48
20.0
100
AcDbPolyline
 90
        4
 70
     1
 43
0.0
 10
10886.13981267156
 20
544.134055781993
 10
11082.13981267156
 20
544.134055781993
 10
11082.13981267156
 20
348.1340557819931
 10
10886.13981267156
 20
348.1340557819931
  0
LINE
  5
46CD6
330
1E
100
AcDbEntity
  8
センター
 48
30.0
100
AcDbLine
 10
10886.13981267156
 20
544.134055781993
 30
0.0
 11
11082.13981267156
 21
446.134055781993
 31
0.0
  0
LINE
  5
46CD7
330
1E
100
AcDbEntity
  8
センター
 48
30.0
100
AcDbLine
 10
11082.13981267156
 20
446.134055781993
 30
0.0
 11
10886.13981267156
 21
348.1340557819931
 31
0.0
  0
LINE
  5
46CD8
330
1E
100
AcDbEntity
  8
センター
 48
30.0
100
AcDbLine
 10
11082.13981267156
 20
246.1340557819931
 30
0.0
 11
10886.13981267156
 21
148.1340557819931
 31
0.0
  0
LINE
  5
46CD9
330
1E
100
AcDbEntity
  8
センター
 48
30.0
100
AcDbLine
 10
10886.13981267156
 20
344.1340557819931
 30
0.0
 11
11082.13981267156
 21
246.1340557819931
 31
0.0
  0
LWPOLYLINE
  5
46CDA
330
1E
100
AcDbEntity
  8
外形１
 48
20.0
100
AcDbPolyline
 90
        4
 70
     1
 43
0.0
 10
10886.13981267156
 20
344.1340557819931
 10
11082.13981267156
 20
344.1340557819931
 10
11082.13981267156
 20
148.1340557819931
 10
10886.13981267156
 20
148.1340557819931
  0
LINE
  5
46CE1
330
1E
100
AcDbEntity
  8
センター
 48
30.0
100
AcDbLine
 10
10884.1893453468
 20
246.1340557819931
 30
0.0
 11
10931.90831790788
 21
246.1340557819931
 31
0.0
  0
LINE
  5
46CE2
330
1E
100
AcDbEntity
  8
センター
 48
30.0
100
AcDbLine
 10
10909.13981267156
 20
265.965622667507
 30
0.0
 11
10909.13981267156
 21
223.7149760673156
 31
0.0
  0
CIRCLE
  5
46CE3
330
1E
100
AcDbEntity
  8
外形１
 48
20.0
100
AcDbCircle
 10
10909.13981267156
 20
246.1340557819931
 30
0.0
 40
15.0
  0
CIRCLE
  5
46CE4
330
1E
100
AcDbEntity
  8
外形１
 48
20.0
100
AcDbCircle
 10
10909.13981267156
 20
246.1340557819885
 30
0.0
 40
7.5
  0
LINE
  5
46CE8
330
1E
100
AcDbEntity
  8
センター
 48
30.0
100
AcDbLine
 10
10909.13981267156
 20
465.9656226675069
 30
0.0
 11
10909.13981267156
 21
423.7149760673155
 31
0.0
  0
LINE
  5
46CE9
330
1E
100
AcDbEntity
  8
センター
 48
30.0
100
AcDbLine
 10
10884.1893453468
 20
446.134055781993
 30
0.0
 11
10931.90831790788
 21
446.134055781993
 31
0.0
  0
CIRCLE
  5
46CEA
330
1E
100
AcDbEntity
  8
外形１
 48
20.0
100
AcDbCircle
 10
10909.13981267156
 20
446.1340557819885
 30
0.0
 40
7.5
  0
CIRCLE
  5
46CEB
330
1E
100
AcDbEntity
  8
外形１
 48
20.0
100
AcDbCircle
 10
10909.13981267156
 20
446.134055781993
 30
0.0
 40
15.0
  0
LINE
  5
46CEC
330
1E
100
AcDbEntity
  8
センター
 48
30.0
100
AcDbLine
 10
11664.51267170299
 20
446.1340557819921
 30
0.0
 11
11714.46534373731
 21
446.1340557819921
 31
0.0
  0
LINE
  5
46CED
330
1E
100
AcDbEntity
  8
VU
 48
8.0
100
AcDbLine
 10
11686.4152816486
 20
461.1334557819937
 30
0.0
 11
11676.21569012858
 21
461.1334557819937
 31
0.0
  0
LINE
  5
46CEE
330
1E
100
AcDbEntity
  8
VU
 48
8.0
100
AcDbLine
 10
11686.4152816486
 20
461.1334557819937
 30
0.0
 11
11675.2157296486
 21
461.1334557819937
 31
0.0
  0
LINE
  5
46CEF
330
1E
100
AcDbEntity
  8
VU
 48
8.0
100
AcDbLine
 10
11686.4152816486
 20
431.1346557819907
 30
0.0
 11
11676.21569012858
 21
431.1346557819907
 31
0.0
  0
LINE
  5
46CF0
330
1E
100
AcDbEntity
  8
VU
 48
8.0
100
AcDbLine
 10
11686.4152816486
 20
431.1346557819907
 30
0.0
 11
11675.2157296486
 21
431.1346557819907
 31
0.0
  0
LINE
  5
46CF1
330
1E
100
AcDbEntity
  8
センター
 48
30.0
100
AcDbLine
 10
11664.51267170299
 20
246.1340557819913
 30
0.0
 11
11714.46534373731
 21
246.1340557819913
 31
0.0
  0
LINE
  5
46CF2
330
1E
100
AcDbEntity
  8
VU
 48
8.0
100
AcDbLine
 10
11686.4152816486
 20
261.1334557819928
 30
0.0
 11
11675.2157296486
 21
261.1334557819928
 31
0.0
  0
LINE
  5
46CF3
330
1E
100
AcDbEntity
  8
VU
 48
8.0
100
AcDbLine
 10
11686.4152816486
 20
261.1334557819928
 30
0.0
 11
11676.21569012858
 21
261.1334557819928
 31
0.0
  0
LINE
  5
46CF4
330
1E
100
AcDbEntity
  8
VU
 48
8.0
100
AcDbLine
 10
11686.4152816486
 20
231.1346557819898
 30
0.0
 11
11675.2157296486
 21
231.1346557819898
 31
0.0
  0
LINE
  5
46CF5
330
1E
100
AcDbEntity
  8
VU
 48
8.0
100
AcDbLine
 10
11686.4152816486
 20
231.1346557819898
 30
0.0
 11
11676.21569012858
 21
231.1346557819898
 31
0.0
  0
LWPOLYLINE
  5
46CF6
330
1E
100
AcDbEntity
  8
外形１
 48
20.0
100
AcDbPolyline
 90
        4
 70
     1
 43
0.0
 10
11086.13981267156
 20
344.1340557819931
 10
11282.13981267156
 20
344.1340557819931
 10
11282.13981267156
 20
148.1340557819931
 10
11086.13981267156
 20
148.1340557819931
  0
LINE
  5
46CF7
330
1E
100
AcDbEntity
  8
センター
 48
30.0
100
AcDbLine
 10
11086.13981267156
 20
344.1340557819931
 30
0.0
 11
11282.13981267156
 21
246.1340557819931
 31
0.0
  0
LINE
  5
46CF9
330
1E
100
AcDbEntity
  8
センター
 48
30.0
100
AcDbLine
 10
11282.13981267156
 20
246.1340557819931
 30
0.0
 11
11086.13981267156
 21
148.1340557819931
 31
0.0
  0
LINE
  5
46CFC
330
1E
100
AcDbEntity
  8
センター
 48
30.0
100
AcDbLine
 10
11084.1893453468
 20
246.1340557819931
 30
0.0
 11
11131.90831790788
 21
246.1340557819931
 31
0.0
  0
CIRCLE
  5
46CFD
330
1E
100
AcDbEntity
  8
外形１
 48
20.0
100
AcDbCircle
 10
11109.13981267156
 20
246.1340557819885
 30
0.0
 40
7.5
  0
CIRCLE
  5
46CFE
330
1E
100
AcDbEntity
  8
外形１
 48
20.0
100
AcDbCircle
 10
11109.13981267156
 20
246.1340557819931
 30
0.0
 40
15.0
  0
LINE
  5
46CFF
330
1E
100
AcDbEntity
  8
センター
 48
30.0
100
AcDbLine
 10
11109.13981267156
 20
265.965622667507
 30
0.0
 11
11109.13981267156
 21
223.7149760673156
 31
0.0
  0
LINE
  5
46D05
330
1E
100
AcDbEntity
  8
VU
 48
8.0
100
AcDbLine
 10
11674.21576964859
 20
253.6337557819897
 30
0.0
 11
11674.21576964859
 21
260.1334957819936
 31
0.0
  0
LINE
  5
46D06
330
1E
100
AcDbEntity
  8
VU
 48
8.0
100
AcDbLine
 10
11674.21576964859
 20
253.6337557819897
 30
0.0
 11
11671.2158896486
 21
253.6337557819897
 31
0.0
  0
ARC
  5
46D07
330
1E
100
AcDbEntity
  8
VU
 48
8.0
100
AcDbCircle
 10
11675.2157296486
 20
260.1334957819936
 30
0.0
 40
0.9999599999999999
100
AcDbArc
 50
90.0
 51
180.0
  0
ARC
  5
46D08
330
1E
100
AcDbEntity
  8
VU
 48
8.0
100
AcDbCircle
 10
11671.2158896486
 20
252.6337957819905
 30
0.0
 40
0.9999599999999999
100
AcDbArc
 50
90.0
 51
180.0
  0
LINE
  5
46D09
330
1E
100
AcDbEntity
  8
VU
 48
8.0
100
AcDbLine
 10
11674.21576964859
 20
238.6343557819928
 30
0.0
 11
11671.2158896486
 21
238.6343557819928
 31
0.0
  0
ARC
  5
46D0A
330
1E
100
AcDbEntity
  8
VU
 48
8.0
100
AcDbCircle
 10
11675.2157296486
 20
232.1346157819935
 30
0.0
 40
0.9999599999999999
100
AcDbArc
 50
180.0
 51
270.0
  0
ARC
  5
46D0B
330
1E
100
AcDbEntity
  8
VU
 48
8.0
100
AcDbCircle
 10
11671.2158896486
 20
239.634315781992
 30
0.0
 40
0.9999599999999999
100
AcDbArc
 50
180.0
 51
270.0
  0
LINE
  5
46D0C
330
1E
100
AcDbEntity
  8
VU
 48
8.0
100
AcDbLine
 10
11670.2159296486
 20
239.634315781992
 30
0.0
 11
11670.2159296486
 21
252.6337957819905
 31
0.0
  0
LINE
  5
46D0D
330
1E
100
AcDbEntity
  8
VU
 48
8.0
100
AcDbLine
 10
11674.21576964859
 20
232.1346157819935
 30
0.0
 11
11674.21576964859
 21
253.6337557819897
 31
0.0
  0
LWPOLYLINE
  5
46D0F
330
1E
100
AcDbEntity
  8
外形１
 48
20.0
100
AcDbPolyline
 90
        4
 70
     1
 43
0.0
 10
11086.13981267156
 20
544.134055781993
 10
11282.13981267156
 20
544.134055781993
 10
11282.13981267156
 20
348.1340557819931
 10
11086.13981267156
 20
348.1340557819931
  0
LINE
  5
46D10
330
1E
100
AcDbEntity
  8
センター
 48
30.0
100
AcDbLine
 10
11086.13981267156
 20
544.134055781993
 30
0.0
 11
11282.13981267156
 21
446.134055781993
 31
0.0
  0
LINE
  5
46D11
330
1E
100
AcDbEntity
  8
センター
 48
30.0
100
AcDbLine
 10
11109.13981267156
 20
465.9656226675069
 30
0.0
 11
11109.13981267156
 21
423.7149760673155
 31
0.0
  0
LINE
  5
46D12
330
1E
100
AcDbEntity
  8
センター
 48
30.0
100
AcDbLine
 10
11282.13981267156
 20
446.134055781993
 30
0.0
 11
11086.13981267156
 21
348.1340557819931
 31
0.0
  0
CIRCLE
  5
46D13
330
1E
100
AcDbEntity
  8
外形１
 48
20.0
100
AcDbCircle
 10
11109.13981267156
 20
446.1340557819885
 30
0.0
 40
7.5
  0
CIRCLE
  5
46D14
330
1E
100
AcDbEntity
  8
外形１
 48
20.0
100
AcDbCircle
 10
11109.13981267156
 20
446.134055781993
 30
0.0
 40
15.0
  0
LINE
  5
46D15
330
1E
100
AcDbEntity
  8
センター
 48
30.0
100
AcDbLine
 10
11084.1893453468
 20
446.134055781993
 30
0.0
 11
11131.90831790788
 21
446.134055781993
 31
0.0
  0
ARC
  5
46D16
330
1E
100
AcDbEntity
  8
VU
 48
8.0
100
AcDbCircle
 10
11671.2158896486
 20
452.6337957819914
 30
0.0
 40
0.9999599999999999
100
AcDbArc
 50
90.0
 51
180.0
  0
ARC
  5
46D17
330
1E
100
AcDbEntity
  8
VU
 48
8.0
100
AcDbCircle
 10
11675.2157296486
 20
460.1334957819944
 30
0.0
 40
0.9999599999999999
100
AcDbArc
 50
90.0
 51
180.0
  0
LINE
  5
46D18
330
1E
100
AcDbEntity
  8
VU
 48
8.0
100
AcDbLine
 10
11674.21576964859
 20
453.6337557819906
 30
0.0
 11
11671.2158896486
 21
453.6337557819906
 31
0.0
  0
LINE
  5
46D19
330
1E
100
AcDbEntity
  8
VU
 48
8.0
100
AcDbLine
 10
11674.21576964859
 20
453.6337557819906
 30
0.0
 11
11674.21576964859
 21
460.1334957819944
 31
0.0
  0
ARC
  5
46D1A
330
1E
100
AcDbEntity
  8
VU
 48
8.0
100
AcDbCircle
 10
11671.2158896486
 20
439.6343157819928
 30
0.0
 40
0.9999599999999999
100
AcDbArc
 50
180.0
 51
270.0
  0
ARC
  5
46D1B
330
1E
100
AcDbEntity
  8
VU
 48
8.0
100
AcDbCircle
 10
11675.2157296486
 20
432.1346157819943
 30
0.0
 40
0.9999599999999999
100
AcDbArc
 50
180.0
 51
270.0
  0
LINE
  5
46D1C
330
1E
100
AcDbEntity
  8
VU
 48
8.0
100
AcDbLine
 10
11674.21576964859
 20
438.6343557819937
 30
0.0
 11
11671.2158896486
 21
438.6343557819937
 31
0.0
  0
LINE
  5
46D1D
330
1E
100
AcDbEntity
  8
VU
 48
8.0
100
AcDbLine
 10
11674.21576964859
 20
432.1346157819943
 30
0.0
 11
11674.21576964859
 21
453.6337557819906
 31
0.0
  0
LINE
  5
46D1E
330
1E
100
AcDbEntity
  8
VU
 48
8.0
100
AcDbLine
 10
11670.2159296486
 20
439.6343157819928
 30
0.0
 11
11670.2159296486
 21
452.6337957819914
 31
0.0
  0
LINE
  5
46D22
330
1E
100
AcDbEntity
  8
KAKURESEN
 48
30.0
100
AcDbLine
 10
11697.2152496486
 20
344.1340557819913
 30
0.0
 11
11697.2152496486
 21
148.1340557819912
 31
0.0
  0
LINE
  5
46D25
330
1E
100
AcDbEntity
  8
VU
100
AcDbLine
 10
11687.2152496486
 20
136.1340557819931
 30
0.0
 11
11837.2152496486
 21
136.1340557819931
 31
0.0
  0
LINE
  5
46D26
330
1E
100
AcDbEntity
  8
KAKURESEN
 48
30.0
100
AcDbLine
 10
11687.2152496486
 20
148.1340557819912
 30
0.0
 11
11697.2152496486
 21
148.1340557819912
 31
0.0
  0
LINE
  5
46D27
330
1E
100
AcDbEntity
  8
VU
 48
8.0
100
AcDbLine
 10
11687.2152496486
 20
258.9335437819918
 30
0.0
 11
11686.4152816486
 21
258.9335437819918
 31
0.0
  0
LINE
  5
46D28
330
1E
100
AcDbEntity
  8
VU
100
AcDbLine
 10
11687.2152496486
 20
246.1340557819913
 30
0.0
 11
11697.2152496486
 21
246.1340557819913
 31
0.0
  0
LINE
  5
46D29
330
1E
100
AcDbEntity
  8
VU
 48
8.0
100
AcDbLine
 10
11687.2152496486
 20
233.3345677819907
 30
0.0
 11
11686.4152816486
 21
233.3345677819907
 31
0.0
  0
LINE
  5
46D2A
330
1E
100
AcDbEntity
  8
VU
 48
8.0
100
AcDbLine
 10
11686.4152816486
 20
231.1346557819898
 30
0.0
 11
11686.4152816486
 21
261.1334557819928
 31
0.0
  0
LINE
  5
46D2F
330
1E
100
AcDbEntity
  8
KAKURESEN
 48
30.0
100
AcDbLine
 10
11697.2152496486
 20
544.1340557819922
 30
0.0
 11
11697.2152496486
 21
344.1340557819922
 31
0.0
  0
LINE
  5
46D30
330
1E
100
AcDbEntity
  8
VU
 48
8.0
100
AcDbLine
 10
11687.2152496486
 20
458.9335437819927
 30
0.0
 11
11686.4152816486
 21
458.9335437819927
 31
0.0
  0
LINE
  5
46D31
330
1E
100
AcDbEntity
  8
VU
100
AcDbLine
 10
11687.2152496486
 20
446.1340557819921
 30
0.0
 11
11697.2152496486
 21
446.1340557819921
 31
0.0
  0
LINE
  5
46D32
330
1E
100
AcDbEntity
  8
VU
 48
8.0
100
AcDbLine
 10
11687.2152496486
 20
433.3345677819916
 30
0.0
 11
11686.4152816486
 21
433.3345677819916
 31
0.0
  0
LINE
  5
46D33
330
1E
100
AcDbEntity
  8
KAKURESEN
 48
30.0
100
AcDbLine
 10
11687.2152496486
 20
348.1340557819922
 30
0.0
 11
11697.2152496486
 21
348.1340557819922
 31
0.0
  0
LINE
  5
46D34
330
1E
100
AcDbEntity
  8
KAKURESEN
 48
30.0
100
AcDbLine
 10
11687.2152496486
 20
344.1340557819913
 30
0.0
 11
11697.2152496486
 21
344.1340557819913
 31
0.0
  0
LINE
  5
46D35
330
1E
100
AcDbEntity
  8
KAKURESEN
 48
30.0
100
AcDbLine
 10
11687.2152496486
 20
348.1340557819922
 30
0.0
 11
11697.2152496486
 21
348.1340557819922
 31
0.0
  0
LINE
  5
46D36
330
1E
100
AcDbEntity
  8
VU
 48
8.0
100
AcDbLine
 10
11686.4152816486
 20
431.1346557819907
 30
0.0
 11
11686.4152816486
 21
461.1334557819937
 31
0.0
  0
LINE
  5
46D37
330
1E
100
AcDbEntity
  8
KAKURESEN
 48
30.0
100
AcDbLine
 10
11687.2152496486
 20
548.1340557819931
 30
0.0
 11
11697.2152496486
 21
548.1340557819931
 31
0.0
  0
LINE
  5
46D38
330
1E
100
AcDbEntity
  8
KAKURESEN
 48
30.0
100
AcDbLine
 10
11687.2152496486
 20
544.1340557819922
 30
0.0
 11
11697.2152496486
 21
544.1340557819922
 31
0.0
  0
DIMENSION
  5
46D39
330
1E
100
AcDbEntity
  8
SUNPOU
100
AcDbDimension
  2
*D4
 10
11294.13981267156
 20
1844.028017115808
 30
0.0
 11
11077.61321477617
 21
1844.028017115808
 31
0.0
 70
   160
  1
<>
 71
     5
 42
420.0
  3
Standard 2
100
AcDbAlignedDimension
 13
10874.13981267156
 23
1766.418198445974
 33
0.0
 14
11294.13981267156
 24
1766.418198445974
 34
0.0
100
AcDbRotatedDimension
1001
ACAD
1000
DSTYLE
1002
{
1070
   140
1040
16.0
1002
}
  0
LINE
  5
46D3B
330
1E
100
AcDbEntity
  8
VU
100
AcDbLine
 10
10874.13981267156
 20
1766.418198445974
 30
0.0
 11
11294.13981267156
 21
1766.418198445974
 31
0.0
  0
LINE
  5
46D3C
330
1E
100
AcDbEntity
  8
KAKURESEN
 48
30.0
100
AcDbLine
 10
10886.13981267156
 20
1626.418198445974
 30
0.0
 11
11082.13981267156
 21
1626.418198445974
 31
0.0
  0
LINE
  5
46D3D
330
1E
100
AcDbEntity
  8
VU
100
AcDbLine
 10
10874.13981267156
 20
1616.418198445973
 30
0.0
 11
11294.13981267156
 21
1616.418198445973
 31
0.0
  0
DIMENSION
  5
46D3E
330
1E
100
AcDbEntity
  8
SUNPOU
100
AcDbDimension
  2
*D5
 10
11284.13981267156
 20
1239.569050657968
 30
0.0
 11
11084.13981267156
 21
1248.369050657968
 31
0.0
 70
    32
 71
     5
 42
400.0
  3
Standard 2
100
AcDbAlignedDimension
 13
10884.13981267156
 23
1146.134055781993
 33
0.0
 14
11284.13981267156
 24
1146.134055781993
 34
0.0
100
AcDbRotatedDimension
1001
ACAD
1000
DSTYLE
1002
{
1070
   140
1040
16.0
1002
}
  0
DIMENSION
  5
46D3F
330
1E
100
AcDbEntity
  8
SUNPOU
100
AcDbDimension
  2
*D6
 10
11082.13981267156
 20
1197.421213179563
 30
0.0
 11
10984.13981267156
 21
1206.221213179563
 31
0.0
 70
    32
 71
     5
 42
196.0
  3
Standard 2
100
AcDbAlignedDimension
 13
10886.13981267156
 23
1144.134055781993
 33
0.0
 14
11082.13981267156
 24
1144.134055781993
 34
0.0
100
AcDbRotatedDimension
1001
ACAD
1000
DSTYLE
1002
{
1070
   140
1040
16.0
1002
}
  0
LWPOLYLINE
  5
46D40
330
1E
100
AcDbEntity
  8
外形１
 48
20.0
100
AcDbPolyline
 90
        4
 70
     1
 43
0.0
 10
10886.13981267156
 20
1144.134055781993
 10
11082.13981267156
 20
1144.134055781993
 10
11082.13981267156
 20
948.1340557819931
 10
10886.13981267156
 20
948.1340557819931
  0
LINE
  5
46D41
330
1E
100
AcDbEntity
  8
センター
 48
30.0
100
AcDbLine
 10
10886.13981267156
 20
1144.134055781993
 30
0.0
 11
11082.13981267156
 21
1046.134055781993
 31
0.0
  0
LINE
  5
46D42
330
1E
100
AcDbEntity
  8
センター
 48
30.0
100
AcDbLine
 10
11082.13981267156
 20
1046.134055781993
 30
0.0
 11
10886.13981267156
 21
948.1340557819931
 31
0.0
  0
LWPOLYLINE
  5
46D43
330
1E
100
AcDbEntity
  8
外形１
 48
20.0
100
AcDbPolyline
 90
        4
 70
     1
 43
0.0
 10
10886.13981267156
 20
944.134055781993
 10
11082.13981267156
 20
944.134055781993
 10
11082.13981267156
 20
748.1340557819931
 10
10886.13981267156
 20
748.1340557819931
  0
LINE
  5
46D44
330
1E
100
AcDbEntity
  8
センター
 48
30.0
100
AcDbLine
 10
10886.13981267156
 20
944.134055781993
 30
0.0
 11
11082.13981267156
 21
846.134055781993
 31
0.0
  0
LINE
  5
46D45
330
1E
100
AcDbEntity
  8
センター
 48
30.0
100
AcDbLine
 10
11082.13981267156
 20
846.134055781993
 30
0.0
 11
10886.13981267156
 21
748.1340557819931
 31
0.0
  0
LINE
  5
46D46
330
1E
100
AcDbEntity
  8
センター
 48
30.0
100
AcDbLine
 10
10886.13981267156
 20
744.134055781993
 30
0.0
 11
11082.13981267156
 21
646.134055781993
 31
0.0
  0
LINE
  5
46D4B
330
1E
100
AcDbEntity
  8
センター
 48
30.0
100
AcDbLine
 10
10884.1893453468
 20
646.134055781993
 30
0.0
 11
10931.90831790788
 21
646.134055781993
 31
0.0
  0
CIRCLE
  5
46D4C
330
1E
100
AcDbEntity
  8
外形１
 48
20.0
100
AcDbCircle
 10
10909.13981267156
 20
646.1340557819885
 30
0.0
 40
7.5
  0
CIRCLE
  5
46D4D
330
1E
100
AcDbEntity
  8
外形１
 48
20.0
100
AcDbCircle
 10
10909.13981267156
 20
646.134055781993
 30
0.0
 40
15.0
  0
LINE
  5
46D4E
330
1E
100
AcDbEntity
  8
センター
 48
30.0
100
AcDbLine
 10
10909.13981267156
 20
665.9656226675069
 30
0.0
 11
10909.13981267156
 21
623.7149760673155
 31
0.0
  0
LINE
  5
46D4F
330
1E
100
AcDbEntity
  8
センター
 48
30.0
100
AcDbLine
 10
10884.1893453468
 20
846.134055781993
 30
0.0
 11
10931.90831790788
 21
846.134055781993
 31
0.0
  0
CIRCLE
  5
46D50
330
1E
100
AcDbEntity
  8
外形１
 48
20.0
100
AcDbCircle
 10
10909.13981267156
 20
846.1340557819886
 30
0.0
 40
7.5
  0
CIRCLE
  5
46D51
330
1E
100
AcDbEntity
  8
外形１
 48
20.0
100
AcDbCircle
 10
10909.13981267156
 20
846.134055781993
 30
0.0
 40
15.0
  0
LINE
  5
46D52
330
1E
100
AcDbEntity
  8
センター
 48
30.0
100
AcDbLine
 10
10909.13981267156
 20
865.9656226675069
 30
0.0
 11
10909.13981267156
 21
823.7149760673155
 31
0.0
  0
DIMENSION
  5
46D53
330
1E
100
AcDbEntity
  8
SUNPOU
100
AcDbDimension
  2
*D7
 10
10838.39640429387
 20
948.1340557819931
 30
0.0
 11
10829.59640429387
 21
1046.134055781995
 31
0.0
 70
    32
 71
     5
 42
196.0000000000001
  3
Standard 2
100
AcDbAlignedDimension
 13
10886.13981267156
 23
1144.134055781993
 33
0.0
 14
10886.13981267156
 24
948.1340557819931
 34
0.0
 50
90.0
100
AcDbRotatedDimension
1001
ACAD
1000
DSTYLE
1002
{
1070
   140
1040
16.0
1002
}
  0
CIRCLE
  5
46D54
330
1E
100
AcDbEntity
  8
外形１
 48
20.0
100
AcDbCircle
 10
10909.13981267156
 20
1046.134055781988
 30
0.0
 40
7.5
  0
CIRCLE
  5
46D55
330
1E
100
AcDbEntity
  8
外形１
 48
20.0
100
AcDbCircle
 10
10909.13981267156
 20
1046.134055781993
 30
0.0
 40
15.0
  0
LINE
  5
46D56
330
1E
100
AcDbEntity
  8
センター
 48
30.0
100
AcDbLine
 10
10909.13981267156
 20
1065.965622667507
 30
0.0
 11
10909.13981267156
 21
1023.714976067315
 31
0.0
  0
LINE
  5
46D59
330
1E
100
AcDbEntity
  8
センター
 48
30.0
100
AcDbLine
 10
10884.1893453468
 20
1046.134055781993
 30
0.0
 11
10931.90831790788
 21
1046.134055781993
 31
0.0
  0
LINE
  5
46D5C
330
1E
100
AcDbEntity
  8
VU
100
AcDbLine
 10
10874.13981267156
 20
1616.418198445973
 30
0.0
 11
10874.13981267156
 21
1766.418198445974
 31
0.0
  0
LINE
  5
46D5D
330
1E
100
AcDbEntity
  8
KAKURESEN
 48
30.0
100
AcDbLine
 10
10886.13981267156
 20
1616.418198445973
 30
0.0
 11
10886.13981267156
 21
1626.418198445974
 31
0.0
  0
LINE
  5
46D5E
330
1E
100
AcDbEntity
  8
センター
 48
30.0
100
AcDbLine
 10
10909.13981267156
 20
1589.850026373244
 30
0.0
 11
10909.13981267156
 21
1641.430549538706
 31
0.0
  0
LINE
  5
46D5F
330
1E
100
AcDbEntity
  8
VU
 48
8.0
100
AcDbLine
 10
10924.13921267157
 20
1615.618230445972
 30
0.0
 11
10894.14041267156
 21
1615.618230445972
 31
0.0
  0
LINE
  5
46D60
330
1E
100
AcDbEntity
  8
VU
 48
8.0
100
AcDbLine
 10
10923.13925267156
 20
1603.418718445975
 30
0.0
 11
10901.64011267156
 21
1603.418718445975
 31
0.0
  0
LINE
  5
46D61
330
1E
100
AcDbEntity
  8
VU
 48
8.0
100
AcDbLine
 10
10915.63955267156
 20
1599.418878445974
 30
0.0
 11
10902.64007267156
 21
1599.418878445974
 31
0.0
  0
LINE
  5
46D62
330
1E
100
AcDbEntity
  8
VU
 48
8.0
100
AcDbLine
 10
10894.14041267156
 20
1615.618230445972
 30
0.0
 11
10894.14041267156
 21
1604.418678445974
 31
0.0
  0
LINE
  5
46D63
330
1E
100
AcDbEntity
  8
VU
 48
8.0
100
AcDbLine
 10
10894.14041267156
 20
1615.618230445972
 30
0.0
 11
10894.14041267156
 21
1605.418638925955
 31
0.0
  0
LINE
  5
46D64
330
1E
100
AcDbEntity
  8
VU
 48
8.0
100
AcDbLine
 10
10896.34032467156
 20
1616.418198445973
 30
0.0
 11
10896.34032467156
 21
1615.618230445972
 31
0.0
  0
LINE
  5
46D65
330
1E
100
AcDbEntity
  8
VU
 48
8.0
100
AcDbLine
 10
10901.64011267156
 20
1603.418718445975
 30
0.0
 11
10895.14037267156
 21
1603.418718445975
 31
0.0
  0
LINE
  5
46D66
330
1E
100
AcDbEntity
  8
VU
 48
8.0
100
AcDbLine
 10
10901.64011267156
 20
1603.418718445975
 30
0.0
 11
10901.64011267156
 21
1600.418838445973
 31
0.0
  0
ARC
  5
46D67
330
1E
100
AcDbEntity
  8
VU
 48
8.0
100
AcDbCircle
 10
10895.14037267156
 20
1604.418678445974
 30
0.0
 40
0.9999599999999999
100
AcDbArc
 50
180.0
 51
270.0
  0
ARC
  5
46D68
330
1E
100
AcDbEntity
  8
VU
 48
8.0
100
AcDbCircle
 10
10902.64007267156
 20
1600.418838445973
 30
0.0
 40
0.9999599999999999
100
AcDbArc
 50
180.0
 51
270.0
  0
LINE
  5
46D69
330
1E
100
AcDbEntity
  8
VU
 48
8.0
100
AcDbLine
 10
10924.13921267157
 20
1615.618230445972
 30
0.0
 11
10924.13921267157
 21
1604.418678445974
 31
0.0
  0
LINE
  5
46D6A
330
1E
100
AcDbEntity
  8
VU
 48
8.0
100
AcDbLine
 10
10924.13921267157
 20
1615.618230445972
 30
0.0
 11
10924.13921267157
 21
1605.418638925955
 31
0.0
  0
LINE
  5
46D6B
330
1E
100
AcDbEntity
  8
VU
 48
8.0
100
AcDbLine
 10
10921.93930067156
 20
1616.418198445973
 30
0.0
 11
10921.93930067156
 21
1615.618230445972
 31
0.0
  0
LINE
  5
46D6C
330
1E
100
AcDbEntity
  8
VU
 48
8.0
100
AcDbLine
 10
10916.63951267156
 20
1603.418718445975
 30
0.0
 11
10916.63951267156
 21
1600.418838445973
 31
0.0
  0
ARC
  5
46D6D
330
1E
100
AcDbEntity
  8
VU
 48
8.0
100
AcDbCircle
 10
10923.13925267156
 20
1604.418678445974
 30
0.0
 40
0.9999599999999999
100
AcDbArc
 50
270.0
 51
0.0
  0
ARC
  5
46D6E
330
1E
100
AcDbEntity
  8
VU
 48
8.0
100
AcDbCircle
 10
10915.63955267156
 20
1600.418838445973
 30
0.0
 40
0.9999599999999999
100
AcDbArc
 50
270.0
 51
0.0
  0
DIMENSION
  5
46D73
330
1E
100
AcDbEntity
  8
SUNPOU
100
AcDbDimension
  2
*D8
 10
11837.2152496486
 20
1234.477473162424
 30
0.0
 11
11762.21524964859
 21
1243.277473162424
 31
0.0
 70
    32
 71
     5
 42
150.0
  3
Standard 2
100
AcDbAlignedDimension
 13
11687.2152496486
 23
1156.134055781993
 33
0.0
 14
11837.2152496486
 24
1156.134055781993
 34
0.0
100
AcDbRotatedDimension
1001
ACAD
1000
DSTYLE
1002
{
1070
   140
1040
16.0
1002
}
  0
LINE
  5
46D75
330
1E
100
AcDbEntity
  8
センター
 48
30.0
100
AcDbLine
 10
11664.51267170299
 20
1046.134055781995
 30
0.0
 11
11714.46534373731
 21
1046.134055781995
 31
0.0
  0
LINE
  5
46D76
330
1E
100
AcDbEntity
  8
VU
 48
8.0
100
AcDbLine
 10
11686.4152816486
 20
1061.133455781996
 30
0.0
 11
11675.2157296486
 21
1061.133455781996
 31
0.0
  0
LINE
  5
46D77
330
1E
100
AcDbEntity
  8
VU
 48
8.0
100
AcDbLine
 10
11686.4152816486
 20
1061.133455781996
 30
0.0
 11
11676.21569012858
 21
1061.133455781996
 31
0.0
  0
LINE
  5
46D78
330
1E
100
AcDbEntity
  8
VU
 48
8.0
100
AcDbLine
 10
11686.4152816486
 20
1031.134655781993
 30
0.0
 11
11675.2157296486
 21
1031.134655781993
 31
0.0
  0
LINE
  5
46D79
330
1E
100
AcDbEntity
  8
VU
 48
8.0
100
AcDbLine
 10
11686.4152816486
 20
1031.134655781993
 30
0.0
 11
11676.21569012858
 21
1031.134655781993
 31
0.0
  0
LINE
  5
46D7A
330
1E
100
AcDbEntity
  8
センター
 48
30.0
100
AcDbLine
 10
11664.51267170299
 20
846.1340557819939
 30
0.0
 11
11714.46534373731
 21
846.1340557819939
 31
0.0
  0
LINE
  5
46D7B
330
1E
100
AcDbEntity
  8
VU
 48
8.0
100
AcDbLine
 10
11686.4152816486
 20
861.1334557819954
 30
0.0
 11
11676.21569012858
 21
861.1334557819954
 31
0.0
  0
LINE
  5
46D7C
330
1E
100
AcDbEntity
  8
VU
 48
8.0
100
AcDbLine
 10
11686.4152816486
 20
861.1334557819954
 30
0.0
 11
11675.2157296486
 21
861.1334557819954
 31
0.0
  0
LINE
  5
46D7D
330
1E
100
AcDbEntity
  8
VU
 48
8.0
100
AcDbLine
 10
11686.4152816486
 20
831.1346557819925
 30
0.0
 11
11676.21569012858
 21
831.1346557819925
 31
0.0
  0
LINE
  5
46D7E
330
1E
100
AcDbEntity
  8
VU
 48
8.0
100
AcDbLine
 10
11686.4152816486
 20
831.1346557819925
 30
0.0
 11
11675.2157296486
 21
831.1346557819925
 31
0.0
  0
LINE
  5
46D7F
330
1E
100
AcDbEntity
  8
センター
 48
30.0
100
AcDbLine
 10
11664.51267170299
 20
646.134055781993
 30
0.0
 11
11714.46534373731
 21
646.134055781993
 31
0.0
  0
LINE
  5
46D80
330
1E
100
AcDbEntity
  8
VU
 48
8.0
100
AcDbLine
 10
11686.4152816486
 20
661.1334557819946
 30
0.0
 11
11675.2157296486
 21
661.1334557819946
 31
0.0
  0
LINE
  5
46D81
330
1E
100
AcDbEntity
  8
VU
 48
8.0
100
AcDbLine
 10
11686.4152816486
 20
661.1334557819946
 30
0.0
 11
11676.21569012858
 21
661.1334557819946
 31
0.0
  0
LINE
  5
46D82
330
1E
100
AcDbEntity
  8
VU
 48
8.0
100
AcDbLine
 10
11686.4152816486
 20
631.1346557819915
 30
0.0
 11
11675.2157296486
 21
631.1346557819915
 31
0.0
  0
LINE
  5
46D83
330
1E
100
AcDbEntity
  8
VU
 48
8.0
100
AcDbLine
 10
11686.4152816486
 20
631.1346557819915
 30
0.0
 11
11676.21569012858
 21
631.1346557819915
 31
0.0
  0
LWPOLYLINE
  5
46D84
330
1E
100
AcDbEntity
  8
外形１
 48
20.0
100
AcDbPolyline
 90
        4
 70
     1
 43
0.0
 10
11086.13981267156
 20
944.134055781993
 10
11282.13981267156
 20
944.134055781993
 10
11282.13981267156
 20
748.1340557819931
 10
11086.13981267156
 20
748.1340557819931
  0
LINE
  5
46D85
330
1E
100
AcDbEntity
  8
センター
 48
30.0
100
AcDbLine
 10
11086.13981267156
 20
944.134055781993
 30
0.0
 11
11282.13981267156
 21
846.134055781993
 31
0.0
  0
LINE
  5
46D86
330
1E
100
AcDbEntity
  8
センター
 48
30.0
100
AcDbLine
 10
11282.13981267156
 20
846.134055781993
 30
0.0
 11
11086.13981267156
 21
748.1340557819931
 31
0.0
  0
LINE
  5
46D87
330
1E
100
AcDbEntity
  8
センター
 48
30.0
100
AcDbLine
 10
11086.13981267156
 20
744.134055781993
 30
0.0
 11
11282.13981267156
 21
646.134055781993
 31
0.0
  0
LINE
  5
46D88
330
1E
100
AcDbEntity
  8
センター
 48
30.0
100
AcDbLine
 10
11084.1893453468
 20
646.134055781993
 30
0.0
 11
11131.90831790788
 21
646.134055781993
 31
0.0
  0
CIRCLE
  5
46D89
330
1E
100
AcDbEntity
  8
外形１
 48
20.0
100
AcDbCircle
 10
11109.13981267156
 20
646.1340557819885
 30
0.0
 40
7.5
  0
CIRCLE
  5
46D8A
330
1E
100
AcDbEntity
  8
外形１
 48
20.0
100
AcDbCircle
 10
11109.13981267156
 20
646.134055781993
 30
0.0
 40
15.0
  0
LINE
  5
46D8B
330
1E
100
AcDbEntity
  8
センター
 48
30.0
100
AcDbLine
 10
11109.13981267156
 20
665.9656226675069
 30
0.0
 11
11109.13981267156
 21
623.7149760673155
 31
0.0
  0
CIRCLE
  5
46D8C
330
1E
100
AcDbEntity
  8
外形１
 48
20.0
100
AcDbCircle
 10
11109.13981267156
 20
846.1340557819886
 30
0.0
 40
7.5
  0
CIRCLE
  5
46D8D
330
1E
100
AcDbEntity
  8
外形１
 48
20.0
100
AcDbCircle
 10
11109.13981267156
 20
846.134055781993
 30
0.0
 40
15.0
  0
LINE
  5
46D8E
330
1E
100
AcDbEntity
  8
センター
 48
30.0
100
AcDbLine
 10
11109.13981267156
 20
865.9656226675069
 30
0.0
 11
11109.13981267156
 21
823.7149760673155
 31
0.0
  0
LINE
  5
46D8F
330
1E
100
AcDbEntity
  8
センター
 48
30.0
100
AcDbLine
 10
11084.1893453468
 20
846.134055781993
 30
0.0
 11
11131.90831790788
 21
846.134055781993
 31
0.0
  0
LINE
  5
46D90
330
1E
100
AcDbEntity
  8
VU
 48
8.0
100
AcDbLine
 10
11674.21576964859
 20
653.6337557819916
 30
0.0
 11
11674.21576964859
 21
660.1334957819954
 31
0.0
  0
LINE
  5
46D91
330
1E
100
AcDbEntity
  8
VU
 48
8.0
100
AcDbLine
 10
11674.21576964859
 20
653.6337557819916
 30
0.0
 11
11671.2158896486
 21
653.6337557819916
 31
0.0
  0
ARC
  5
46D92
330
1E
100
AcDbEntity
  8
VU
 48
8.0
100
AcDbCircle
 10
11675.2157296486
 20
660.1334957819954
 30
0.0
 40
0.9999599999999999
100
AcDbArc
 50
90.0
 51
180.0
  0
ARC
  5
46D93
330
1E
100
AcDbEntity
  8
VU
 48
8.0
100
AcDbCircle
 10
11671.2158896486
 20
652.6337957819923
 30
0.0
 40
0.9999599999999999
100
AcDbArc
 50
90.0
 51
180.0
  0
ARC
  5
46D94
330
1E
100
AcDbEntity
  8
VU
 48
8.0
100
AcDbCircle
 10
11671.2158896486
 20
639.6343157819938
 30
0.0
 40
0.9999599999999999
100
AcDbArc
 50
180.0
 51
270.0
  0
LINE
  5
46D95
330
1E
100
AcDbEntity
  8
VU
 48
8.0
100
AcDbLine
 10
11674.21576964859
 20
638.6343557819945
 30
0.0
 11
11671.2158896486
 21
638.6343557819945
 31
0.0
  0
ARC
  5
46D96
330
1E
100
AcDbEntity
  8
VU
 48
8.0
100
AcDbCircle
 10
11675.2157296486
 20
632.1346157819952
 30
0.0
 40
0.9999599999999999
100
AcDbArc
 50
180.0
 51
270.0
  0
LINE
  5
46D97
330
1E
100
AcDbEntity
  8
VU
 48
8.0
100
AcDbLine
 10
11674.21576964859
 20
632.1346157819952
 30
0.0
 11
11674.21576964859
 21
653.6337557819916
 31
0.0
  0
LINE
  5
46D98
330
1E
100
AcDbEntity
  8
VU
 48
8.0
100
AcDbLine
 10
11670.2159296486
 20
639.6343157819938
 30
0.0
 11
11670.2159296486
 21
652.6337957819923
 31
0.0
  0
ARC
  5
46D99
330
1E
100
AcDbEntity
  8
VU
 48
8.0
100
AcDbCircle
 10
11671.2158896486
 20
852.6337957819933
 30
0.0
 40
0.9999599999999999
100
AcDbArc
 50
90.0
 51
180.0
  0
ARC
  5
46D9A
330
1E
100
AcDbEntity
  8
VU
 48
8.0
100
AcDbCircle
 10
11675.2157296486
 20
860.1334957819963
 30
0.0
 40
0.9999599999999999
100
AcDbArc
 50
90.0
 51
180.0
  0
LINE
  5
46D9B
330
1E
100
AcDbEntity
  8
VU
 48
8.0
100
AcDbLine
 10
11674.21576964859
 20
853.6337557819924
 30
0.0
 11
11671.2158896486
 21
853.6337557819924
 31
0.0
  0
LINE
  5
46D9C
330
1E
100
AcDbEntity
  8
VU
 48
8.0
100
AcDbLine
 10
11674.21576964859
 20
853.6337557819924
 30
0.0
 11
11674.21576964859
 21
860.1334957819963
 31
0.0
  0
ARC
  5
46D9D
330
1E
100
AcDbEntity
  8
VU
 48
8.0
100
AcDbCircle
 10
11671.2158896486
 20
839.6343157819947
 30
0.0
 40
0.9999599999999999
100
AcDbArc
 50
180.0
 51
270.0
  0
ARC
  5
46D9E
330
1E
100
AcDbEntity
  8
VU
 48
8.0
100
AcDbCircle
 10
11675.2157296486
 20
832.1346157819961
 30
0.0
 40
0.9999599999999999
100
AcDbArc
 50
180.0
 51
270.0
  0
LINE
  5
46D9F
330
1E
100
AcDbEntity
  8
VU
 48
8.0
100
AcDbLine
 10
11674.21576964859
 20
838.6343557819955
 30
0.0
 11
11671.2158896486
 21
838.6343557819955
 31
0.0
  0
LINE
  5
46DA0
330
1E
100
AcDbEntity
  8
VU
 48
8.0
100
AcDbLine
 10
11674.21576964859
 20
832.1346157819961
 30
0.0
 11
11674.21576964859
 21
853.6337557819924
 31
0.0
  0
LINE
  5
46DA1
330
1E
100
AcDbEntity
  8
VU
 48
8.0
100
AcDbLine
 10
11670.2159296486
 20
839.6343157819947
 30
0.0
 11
11670.2159296486
 21
852.6337957819933
 31
0.0
  0
LWPOLYLINE
  5
46DA2
330
1E
100
AcDbEntity
  8
外形１
 48
20.0
100
AcDbPolyline
 90
        4
 70
     1
 43
0.0
 10
11086.13981267156
 20
1144.134055781993
 10
11282.13981267156
 20
1144.134055781993
 10
11282.13981267156
 20
948.1340557819931
 10
11086.13981267156
 20
948.1340557819931
  0
LINE
  5
46DA3
330
1E
100
AcDbEntity
  8
センター
 48
30.0
100
AcDbLine
 10
11282.13981267156
 20
1046.134055781993
 30
0.0
 11
11086.13981267156
 21
948.1340557819931
 31
0.0
  0
CIRCLE
  5
46DA4
330
1E
100
AcDbEntity
  8
外形１
 48
20.0
100
AcDbCircle
 10
11109.13981267156
 20
1046.134055781988
 30
0.0
 40
7.5
  0
CIRCLE
  5
46DA5
330
1E
100
AcDbEntity
  8
外形１
 48
20.0
100
AcDbCircle
 10
11109.13981267156
 20
1046.134055781993
 30
0.0
 40
15.0
  0
LINE
  5
46DA6
330
1E
100
AcDbEntity
  8
センター
 48
30.0
100
AcDbLine
 10
11109.13981267156
 20
1065.965622667507
 30
0.0
 11
11109.13981267156
 21
1023.714976067315
 31
0.0
  0
LINE
  5
46DA8
330
1E
100
AcDbEntity
  8
センター
 48
30.0
100
AcDbLine
 10
11086.13981267156
 20
1144.134055781993
 30
0.0
 11
11282.13981267156
 21
1046.134055781993
 31
0.0
  0
LINE
  5
46DAA
330
1E
100
AcDbEntity
  8
センター
 48
30.0
100
AcDbLine
 10
11084.1893453468
 20
1046.134055781993
 30
0.0
 11
11131.90831790788
 21
1046.134055781993
 31
0.0
  0
LINE
  5
46DAB
330
1E
100
AcDbEntity
  8
VU
 48
8.0
100
AcDbLine
 10
11670.2159296486
 20
1039.634315781991
 30
0.0
 11
11670.2159296486
 21
1052.633795781994
 31
0.0
  0
LINE
  5
46DAC
330
1E
100
AcDbEntity
  8
VU
 48
8.0
100
AcDbLine
 10
11674.21576964859
 20
1032.134615781992
 30
0.0
 11
11674.21576964859
 21
1053.633755781993
 31
0.0
  0
ARC
  5
46DAD
330
1E
100
AcDbEntity
  8
VU
 48
8.0
100
AcDbCircle
 10
11671.2158896486
 20
1039.634315781991
 30
0.0
 40
0.9999599999999999
100
AcDbArc
 50
180.0
 51
270.0
  0
LINE
  5
46DAE
330
1E
100
AcDbEntity
  8
VU
 48
8.0
100
AcDbLine
 10
11674.21576964859
 20
1038.634355781996
 30
0.0
 11
11671.2158896486
 21
1038.634355781996
 31
0.0
  0
ARC
  5
46DAF
330
1E
100
AcDbEntity
  8
VU
 48
8.0
100
AcDbCircle
 10
11675.2157296486
 20
1032.134615781992
 30
0.0
 40
0.9999599999999999
100
AcDbArc
 50
180.0
 51
270.0
  0
LINE
  5
46DB0
330
1E
100
AcDbEntity
  8
VU
 48
8.0
100
AcDbLine
 10
11674.21576964859
 20
1053.633755781993
 30
0.0
 11
11674.21576964859
 21
1060.133495781997
 31
0.0
  0
ARC
  5
46DB1
330
1E
100
AcDbEntity
  8
VU
 48
8.0
100
AcDbCircle
 10
11671.2158896486
 20
1052.633795781994
 30
0.0
 40
0.9999599999999999
100
AcDbArc
 50
90.0
 51
180.0
  0
LINE
  5
46DB2
330
1E
100
AcDbEntity
  8
VU
 48
8.0
100
AcDbLine
 10
11674.21576964859
 20
1053.633755781993
 30
0.0
 11
11671.2158896486
 21
1053.633755781993
 31
0.0
  0
ARC
  5
46DB3
330
1E
100
AcDbEntity
  8
VU
 48
8.0
100
AcDbCircle
 10
11675.2157296486
 20
1060.133495781997
 30
0.0
 40
0.9999599999999999
100
AcDbArc
 50
90.0
 51
180.0
  0
LINE
  5
46DB4
330
1E
100
AcDbEntity
  8
KAKURESEN
 48
30.0
100
AcDbLine
 10
11697.2152496486
 20
944.1340557819939
 30
0.0
 11
11697.2152496486
 21
744.1340557819939
 31
0.0
  0
LINE
  5
46DB5
330
1E
100
AcDbEntity
  8
KAKURESEN
 48
30.0
100
AcDbLine
 10
11687.2152496486
 20
748.1340557819939
 30
0.0
 11
11697.2152496486
 21
748.1340557819939
 31
0.0
  0
LINE
  5
46DB6
330
1E
100
AcDbEntity
  8
KAKURESEN
 48
30.0
100
AcDbLine
 10
11687.2152496486
 20
744.134055781993
 30
0.0
 11
11697.2152496486
 21
744.134055781993
 31
0.0
  0
LINE
  5
46DB7
330
1E
100
AcDbEntity
  8
VU
 48
8.0
100
AcDbLine
 10
11687.2152496486
 20
658.9335437819936
 30
0.0
 11
11686.4152816486
 21
658.9335437819936
 31
0.0
  0
LINE
  5
46DB8
330
1E
100
AcDbEntity
  8
VU
100
AcDbLine
 10
11687.2152496486
 20
646.134055781993
 30
0.0
 11
11697.2152496486
 21
646.134055781993
 31
0.0
  0
LINE
  5
46DB9
330
1E
100
AcDbEntity
  8
VU
 48
8.0
100
AcDbLine
 10
11687.2152496486
 20
633.3345677819925
 30
0.0
 11
11686.4152816486
 21
633.3345677819925
 31
0.0
  0
LINE
  5
46DBA
330
1E
100
AcDbEntity
  8
VU
 48
8.0
100
AcDbLine
 10
11686.4152816486
 20
631.1346557819915
 30
0.0
 11
11686.4152816486
 21
661.1334557819946
 31
0.0
  0
LINE
  5
46DBB
330
1E
100
AcDbEntity
  8
VU
 48
8.0
100
AcDbLine
 10
11687.2152496486
 20
858.9335437819945
 30
0.0
 11
11686.4152816486
 21
858.9335437819945
 31
0.0
  0
LINE
  5
46DBC
330
1E
100
AcDbEntity
  8
VU
100
AcDbLine
 10
11687.2152496486
 20
846.1340557819939
 30
0.0
 11
11697.2152496486
 21
846.1340557819939
 31
0.0
  0
LINE
  5
46DBD
330
1E
100
AcDbEntity
  8
VU
 48
8.0
100
AcDbLine
 10
11687.2152496486
 20
833.3345677819934
 30
0.0
 11
11686.4152816486
 21
833.3345677819934
 31
0.0
  0
LINE
  5
46DBE
330
1E
100
AcDbEntity
  8
VU
 48
8.0
100
AcDbLine
 10
11686.4152816486
 20
831.1346557819925
 30
0.0
 11
11686.4152816486
 21
861.1334557819954
 31
0.0
  0
LINE
  5
46DC1
330
1E
100
AcDbEntity
  8
VU
 48
8.0
100
AcDbLine
 10
11686.4152816486
 20
1031.134655781993
 30
0.0
 11
11686.4152816486
 21
1061.133455781996
 31
0.0
  0
LINE
  5
46DC2
330
1E
100
AcDbEntity
  8
KAKURESEN
 48
30.0
100
AcDbLine
 10
11697.2152496486
 20
1144.134055781995
 30
0.0
 11
11697.2152496486
 21
944.1340557819948
 31
0.0
  0
LINE
  5
46DC3
330
1E
100
AcDbEntity
  8
VU
 48
8.0
100
AcDbLine
 10
11687.2152496486
 20
1033.334567781994
 30
0.0
 11
11686.4152816486
 21
1033.334567781994
 31
0.0
  0
LINE
  5
46DC4
330
1E
100
AcDbEntity
  8
KAKURESEN
 48
30.0
100
AcDbLine
 10
11687.2152496486
 20
948.1340557819949
 30
0.0
 11
11697.2152496486
 21
948.1340557819949
 31
0.0
  0
LINE
  5
46DC5
330
1E
100
AcDbEntity
  8
KAKURESEN
 48
30.0
100
AcDbLine
 10
11687.2152496486
 20
944.1340557819939
 30
0.0
 11
11697.2152496486
 21
944.1340557819939
 31
0.0
  0
LINE
  5
46DC6
330
1E
100
AcDbEntity
  8
VU
100
AcDbLine
 10
11687.2152496486
 20
1156.134055781993
 30
0.0
 11
11837.2152496486
 21
1156.134055781993
 31
0.0
  0
LINE
  5
46DC7
330
1E
100
AcDbEntity
  8
KAKURESEN
 48
30.0
100
AcDbLine
 10
11687.2152496486
 20
1144.134055781995
 30
0.0
 11
11697.2152496486
 21
1144.134055781995
 31
0.0
  0
LINE
  5
46DC8
330
1E
100
AcDbEntity
  8
VU
 48
8.0
100
AcDbLine
 10
11687.2152496486
 20
1058.933543781995
 30
0.0
 11
11686.4152816486
 21
1058.933543781995
 31
0.0
  0
LINE
  5
46DC9
330
1E
100
AcDbEntity
  8
VU
100
AcDbLine
 10
11687.2152496486
 20
1046.134055781995
 30
0.0
 11
11697.2152496486
 21
1046.134055781995
 31
0.0
  0
LINE
  5
46DCD
330
1E
100
AcDbEntity
  8
VU
100
AcDbLine
 10
11294.13981267156
 20
1616.418198445973
 30
0.0
 11
11294.13981267156
 21
1766.418198445974
 31
0.0
  0
LINE
  5
46DCE
330
1E
100
AcDbEntity
  8
KAKURESEN
 48
30.0
100
AcDbLine
 10
11086.13981267156
 20
1626.418198445974
 30
0.0
 11
11282.13981267156
 21
1626.418198445974
 31
0.0
  0
LINE
  5
46DCF
330
1E
100
AcDbEntity
  8
センター
 48
30.0
100
AcDbLine
 10
11109.13981267156
 20
1589.850026373244
 30
0.0
 11
11109.13981267156
 21
1641.430549538706
 31
0.0
  0
LINE
  5
46DD0
330
1E
100
AcDbEntity
  8
KAKURESEN
 48
30.0
100
AcDbLine
 10
11082.13981267156
 20
1616.418198445973
 30
0.0
 11
11082.13981267156
 21
1626.418198445974
 31
0.0
  0
LINE
  5
46DD1
330
1E
100
AcDbEntity
  8
KAKURESEN
 48
30.0
100
AcDbLine
 10
11086.13981267156
 20
1616.418198445973
 30
0.0
 11
11086.13981267156
 21
1626.418198445974
 31
0.0
  0
LINE
  5
46DD2
330
1E
100
AcDbEntity
  8
VU
 48
8.0
100
AcDbLine
 10
11123.13925267156
 20
1603.418718445975
 30
0.0
 11
11101.64011267156
 21
1603.418718445975
 31
0.0
  0
LINE
  5
46DD3
330
1E
100
AcDbEntity
  8
VU
 48
8.0
100
AcDbLine
 10
11124.13921267156
 20
1615.618230445972
 30
0.0
 11
11094.14041267156
 21
1615.618230445972
 31
0.0
  0
LINE
  5
46DD4
330
1E
100
AcDbEntity
  8
VU
 48
8.0
100
AcDbLine
 10
11115.63955267156
 20
1599.418878445974
 30
0.0
 11
11102.64007267156
 21
1599.418878445974
 31
0.0
  0
LINE
  5
46DD5
330
1E
100
AcDbEntity
  8
VU
 48
8.0
100
AcDbLine
 10
11094.14041267156
 20
1615.618230445972
 30
0.0
 11
11094.14041267156
 21
1604.418678445974
 31
0.0
  0
LINE
  5
46DD6
330
1E
100
AcDbEntity
  8
VU
 48
8.0
100
AcDbLine
 10
11094.14041267156
 20
1615.618230445972
 30
0.0
 11
11094.14041267156
 21
1605.418638925955
 31
0.0
  0
LINE
  5
46DD7
330
1E
100
AcDbEntity
  8
VU
 48
8.0
100
AcDbLine
 10
11101.64011267156
 20
1603.418718445975
 30
0.0
 11
11095.14037267156
 21
1603.418718445975
 31
0.0
  0
LINE
  5
46DD8
330
1E
100
AcDbEntity
  8
VU
 48
8.0
100
AcDbLine
 10
11101.64011267156
 20
1603.418718445975
 30
0.0
 11
11101.64011267156
 21
1600.418838445973
 31
0.0
  0
ARC
  5
46DD9
330
1E
100
AcDbEntity
  8
VU
 48
8.0
100
AcDbCircle
 10
11095.14037267156
 20
1604.418678445974
 30
0.0
 40
0.9999599999999999
100
AcDbArc
 50
180.0
 51
270.0
  0
LINE
  5
46DDA
330
1E
100
AcDbEntity
  8
VU
 48
8.0
100
AcDbLine
 10
11096.34032467156
 20
1616.418198445973
 30
0.0
 11
11096.34032467156
 21
1615.618230445972
 31
0.0
  0
ARC
  5
46DDB
330
1E
100
AcDbEntity
  8
VU
 48
8.0
100
AcDbCircle
 10
11102.64007267156
 20
1600.418838445973
 30
0.0
 40
0.9999599999999999
100
AcDbArc
 50
180.0
 51
270.0
  0
ARC
  5
46DDC
330
1E
100
AcDbEntity
  8
VU
 48
8.0
100
AcDbCircle
 10
11123.13925267156
 20
1604.418678445974
 30
0.0
 40
0.9999599999999999
100
AcDbArc
 50
270.0
 51
0.0
  0
LINE
  5
46DDD
330
1E
100
AcDbEntity
  8
VU
 48
8.0
100
AcDbLine
 10
11121.93930067156
 20
1616.418198445973
 30
0.0
 11
11121.93930067156
 21
1615.618230445972
 31
0.0
  0
LINE
  5
46DDE
330
1E
100
AcDbEntity
  8
VU
 48
8.0
100
AcDbLine
 10
11124.13921267156
 20
1615.618230445972
 30
0.0
 11
11124.13921267156
 21
1604.418678445974
 31
0.0
  0
LINE
  5
46DDF
330
1E
100
AcDbEntity
  8
VU
 48
8.0
100
AcDbLine
 10
11124.13921267156
 20
1615.618230445972
 30
0.0
 11
11124.13921267156
 21
1605.418638925955
 31
0.0
  0
LINE
  5
46DE0
330
1E
100
AcDbEntity
  8
VU
 48
8.0
100
AcDbLine
 10
11116.63951267156
 20
1603.418718445975
 30
0.0
 11
11116.63951267156
 21
1600.418838445973
 31
0.0
  0
ARC
  5
46DE1
330
1E
100
AcDbEntity
  8
VU
 48
8.0
100
AcDbCircle
 10
11115.63955267156
 20
1600.418838445973
 30
0.0
 40
0.9999599999999999
100
AcDbArc
 50
270.0
 51
0.0
  0
LINE
  5
46DE2
330
1E
100
AcDbEntity
  8
KAKURESEN
 48
30.0
100
AcDbLine
 10
11282.13981267156
 20
1616.418198445973
 30
0.0
 11
11282.13981267156
 21
1626.418198445974
 31
0.0
  0
LINE
  5
46DE3
330
1E
100
AcDbEntity
  8
KAKURESEN
 48
30.0
100
AcDbLine
 10
11282.13981267156
 20
1616.418198445973
 30
0.0
 11
11282.13981267156
 21
1626.418198445974
 31
0.0
  0
DIMENSION
  5
46DE7
330
1E
100
AcDbEntity
  8
SUNPOU
100
AcDbDimension
  2
*D9
 10
10782.41225969554
 20
1616.418198445973
 30
0.0
 11
10773.61225969554
 21
1691.418198445975
 31
0.0
 70
    32
 71
     5
 42
150.0000000000004
  3
Standard 2
100
AcDbAlignedDimension
 13
10874.13981267156
 23
1766.418198445974
 33
0.0
 14
10874.13981267156
 24
1616.418198445973
 34
0.0
 50
90.0
100
AcDbRotatedDimension
1001
ACAD
1000
DSTYLE
1002
{
1070
   140
1040
16.0
1002
}
  0
DIMENSION
  5
46DE8
330
1E
100
AcDbEntity
  8
SUNPOU
100
AcDbDimension
  2
*D10
 10
11294.13981267156
 20
1281.562297132886
 30
0.0
 11
11084.13981267156
 21
1290.362297132886
 31
0.0
 70
    32
 71
     5
 42
420.0
  3
Standard 2
100
AcDbAlignedDimension
 13
10874.13981267156
 23
1158.134055781993
 33
0.0
 14
11294.13981267156
 24
1158.134055781993
 34
0.0
100
AcDbRotatedDimension
1001
ACAD
1000
DSTYLE
1002
{
1070
   140
1040
16.0
1002
}
  0
LINE
  5
47062
330
1E
100
AcDbEntity
  8
外形１
 48
20.0
100
AcDbLine
 10
9944.764139187702
 20
1043.291076259779
 30
0.0
 11
10157.99705999739
 21
1006.470325410458
 31
0.0
  0
LINE
  5
47065
330
1E
100
AcDbEntity
  8
外形１
 48
20.0
100
AcDbLine
 10
10148.52209507882
 20
1018.884719823498
 30
0.0
 11
10148.52209507883
 21
1462.660428085218
 31
0.0
  0
LINE
  5
47067
330
1E
100
AcDbEntity
  8
外形１
 48
20.0
100
AcDbLine
 10
10157.99705999739
 20
1006.470325410458
 30
0.0
 11
10157.99705999738
 21
1477.800742470142
 31
0.0
  0
LINE
  5
47068
330
1E
100
AcDbEntity
  8
外形１
 48
20.0
100
AcDbLine
 10
10157.99705999739
 20
1006.470325410458
 30
0.0
 11
10209.44747359551
 21
1043.59857962068
 31
0.0
  0
LINE
  5
47088
330
1E
100
AcDbEntity
  8
外形１
 48
20.0
100
AcDbLine
 10
9944.764139187702
 20
1043.291076259779
 30
0.0
 11
9944.764139187697
 21
1514.621493319461
 31
0.0
  0
LINE
  5
4708A
330
1E
100
AcDbEntity
  8
外形１
 48
20.0
100
AcDbLine
 10
9954.239104106274
 20
1052.433224330669
 30
0.0
 11
9954.239104106251
 21
1496.208932592393
 31
0.0
  0
LINE
  5
470AA
330
1E
100
AcDbEntity
  8
外形１
 48
20.0
100
AcDbLine
 10
9954.239104106274
 20
1052.433224330669
 30
0.0
 11
10148.52209507882
 21
1018.884719823498
 31
0.0
  0
LINE
  5
470AB
330
1E
100
AcDbEntity
  8
外形１
 48
20.0
100
AcDbLine
 10
10051.38059959255
 20
1035.658972077083
 30
0.0
 11
10051.38059959254
 21
1124.414113729428
 31
0.0
  0
LINE
  5
470AC
330
1E
100
AcDbEntity
  8
外形１
 48
20.0
100
AcDbLine
 10
9954.239104106267
 20
1141.188365983013
 30
0.0
 11
10148.52209507882
 21
1107.639861475843
 31
0.0
  0
LINE
  5
470B4
330
1E
100
AcDbEntity
  8
外形１
 48
20.0
100
AcDbLine
 10
10051.38059959254
 20
1124.414113729428
 30
0.0
 11
10051.38059959254
 21
1213.169255381773
 31
0.0
  0
LINE
  5
470B5
330
1E
100
AcDbEntity
  8
外形１
 48
20.0
100
AcDbLine
 10
9954.239104106264
 20
1229.943507635358
 30
0.0
 11
10148.52209507882
 21
1196.395003128188
 31
0.0
  0
LINE
  5
470B6
330
1E
100
AcDbEntity
  8
外形１
 48
20.0
100
AcDbLine
 10
10051.38059959254
 20
1213.169255381773
 30
0.0
 11
10051.38059959254
 21
1301.924397034118
 31
0.0
  0
LINE
  5
470B7
330
1E
100
AcDbEntity
  8
外形１
 48
20.0
100
AcDbLine
 10
9954.23910410626
 20
1318.698649287703
 30
0.0
 11
10148.52209507881
 21
1285.150144780533
 31
0.0
  0
LINE
  5
470B8
330
1E
100
AcDbEntity
  8
外形１
 48
20.0
100
AcDbLine
 10
10051.38059959254
 20
1301.924397034118
 30
0.0
 11
10051.38059959253
 21
1390.679538686462
 31
0.0
  0
LINE
  5
470B9
330
1E
100
AcDbEntity
  8
外形１
 48
20.0
100
AcDbLine
 10
9954.239104106257
 20
1407.453790940047
 30
0.0
 11
10148.52209507881
 21
1373.905286432878
 31
0.0
  0
LINE
  5
470BA
330
1E
100
AcDbEntity
  8
外形１
 48
20.0
100
AcDbLine
 10
10051.38059959253
 20
1390.679538686462
 30
0.0
 11
10051.38059959253
 21
1479.434680338807
 31
0.0
  0
LINE
  5
470BB
330
1E
100
AcDbEntity
  8
外形１
 48
20.0
100
AcDbLine
 10
9954.239104106251
 20
1496.208932592393
 30
0.0
 11
10148.52209507883
 21
1462.660428085218
 31
0.0
  0
LINE
  5
470BC
330
1E
100
AcDbEntity
  8
外形１
 48
20.0
100
AcDbLine
 10
9944.764139187697
 20
1514.621493319461
 30
0.0
 11
10157.99705999738
 21
1477.800742470142
 31
0.0
  0
LINE
  5
470BD
330
1E
100
AcDbEntity
  8
外形１
 48
20.0
100
AcDbLine
 10
10209.44747359551
 20
1043.59857962068
 30
0.0
 11
10209.44747359549
 21
1514.928996680364
 31
0.0
  0
LINE
  5
470BE
330
1E
100
AcDbEntity
  8
外形１
 48
20.0
100
AcDbLine
 10
10157.99705999738
 20
1477.800742470142
 30
0.0
 11
10209.44747359549
 21
1514.928996680364
 31
0.0
  0
LINE
  5
470BF
330
1E
100
AcDbEntity
  8
外形１
 48
20.0
100
AcDbLine
 10
9944.764139187697
 20
1514.621493319461
 30
0.0
 11
9996.21455278581
 21
1551.749747529683
 31
0.0
  0
LINE
  5
470C0
330
1E
100
AcDbEntity
  8
外形１
 48
20.0
100
AcDbLine
 10
9996.21455278581
 20
1551.749747529683
 30
0.0
 11
10209.44747359549
 21
1514.928996680364
 31
0.0
  0
CIRCLE
  5
470C1
330
1E
100
AcDbEntity
  8
外形１
100
AcDbCircle
 10
9965.569948287026
 20
1447.702541585058
 30
0.0
 40
4.65982547380554
  0
CIRCLE
  5
470C2
330
1E
100
AcDbEntity
  8
外形１
100
AcDbCircle
 10
9965.569948287026
 20
1447.702541585058
 30
0.0
 40
6.015158014546614
  0
CIRCLE
  5
470C3
330
1E
100
AcDbEntity
  8
外形１
100
AcDbCircle
 10
9965.569948287033
 20
1358.947399932713
 30
0.0
 40
4.65982547380554
  0
CIRCLE
  5
470C4
330
1E
100
AcDbEntity
  8
外形１
100
AcDbCircle
 10
9965.569948287033
 20
1358.947399932713
 30
0.0
 40
6.015158014546614
  0
CIRCLE
  5
470C5
330
1E
100
AcDbEntity
  8
外形１
100
AcDbCircle
 10
10062.71144377331
 20
1430.928289331471
 30
0.0
 40
4.65982547380554
  0
CIRCLE
  5
470C6
330
1E
100
AcDbEntity
  8
外形１
100
AcDbCircle
 10
10062.71144377331
 20
1430.928289331471
 30
0.0
 40
6.015158014546614
  0
CIRCLE
  5
470C7
330
1E
100
AcDbEntity
  8
外形１
100
AcDbCircle
 10
10062.71144377331
 20
1342.173147679128
 30
0.0
 40
4.65982547380554
  0
CIRCLE
  5
470C8
330
1E
100
AcDbEntity
  8
外形１
100
AcDbCircle
 10
10062.71144377331
 20
1342.173147679128
 30
0.0
 40
6.015158014546614
  0
CIRCLE
  5
470C9
330
1E
100
AcDbEntity
  8
外形１
100
AcDbCircle
 10
10062.71144377331
 20
1253.418006026783
 30
0.0
 40
4.65982547380554
  0
CIRCLE
  5
470CA
330
1E
100
AcDbEntity
  8
外形１
100
AcDbCircle
 10
10062.71144377331
 20
1253.418006026783
 30
0.0
 40
6.015158014546614
  0
CIRCLE
  5
470CB
330
1E
100
AcDbEntity
  8
外形１
100
AcDbCircle
 10
10062.71144377331
 20
1164.662864374438
 30
0.0
 40
4.65982547380554
  0
CIRCLE
  5
470CC
330
1E
100
AcDbEntity
  8
外形１
100
AcDbCircle
 10
10062.71144377331
 20
1164.662864374438
 30
0.0
 40
6.015158014546614
  0
CIRCLE
  5
470CD
330
1E
100
AcDbEntity
  8
外形１
100
AcDbCircle
 10
10062.71144377332
 20
1075.907722722093
 30
0.0
 40
4.65982547380554
  0
CIRCLE
  5
470CE
330
1E
100
AcDbEntity
  8
外形１
100
AcDbCircle
 10
10062.71144377332
 20
1075.907722722093
 30
0.0
 40
6.015158014546614
  0
CIRCLE
  5
470CF
330
1E
100
AcDbEntity
  8
外形１
100
AcDbCircle
 10
9965.569948287045
 20
1092.681974975678
 30
0.0
 40
4.65982547380554
  0
CIRCLE
  5
470D0
330
1E
100
AcDbEntity
  8
外形１
100
AcDbCircle
 10
9965.569948287045
 20
1092.681974975678
 30
0.0
 40
6.015158014546614
  0
CIRCLE
  5
470D1
330
1E
100
AcDbEntity
  8
外形１
100
AcDbCircle
 10
9965.56994828704
 20
1181.437116628023
 30
0.0
 40
4.65982547380554
  0
CIRCLE
  5
470D2
330
1E
100
AcDbEntity
  8
外形１
100
AcDbCircle
 10
9965.56994828704
 20
1181.437116628023
 30
0.0
 40
6.015158014546614
  0
CIRCLE
  5
470D3
330
1E
100
AcDbEntity
  8
外形１
100
AcDbCircle
 10
9965.569948287035
 20
1270.192258280368
 30
0.0
 40
4.65982547380554
  0
CIRCLE
  5
470D4
330
1E
100
AcDbEntity
  8
外形１
100
AcDbCircle
 10
9965.569948287035
 20
1270.192258280368
 30
0.0
 40
6.015158014546614
  0
LINE
  5
470D5
330
1E
100
AcDbEntity
  8
枠
 62
    21
100
AcDbLine
 10
9697.267429955653
 20
-127.3323503051542
 30
0.0
 11
12738.76742995565
 21
-127.3323503051542
 31
0.0
  0
LINE
  5
470D6
330
1E
100
AcDbEntity
  8
枠
 62
    21
100
AcDbLine
 10
9697.267429955653
 20
2045.167649694843
 30
0.0
 11
12738.76742995565
 21
2045.167649694843
 31
0.0
  0
LWPOLYLINE
  5
470D7
330
1E
100
AcDbEntity
  8
Defpoints
 48
10.0
100
AcDbPolyline
 90
        4
 70
     1
 43
0.0
 10
9538.017429955653
 20
-229.0823503051543
 10
12898.01742995565
 20
-229.0823503051543
 10
12898.01742995565
 20
2146.917649694843
 10
9538.017429955653
 20
2146.917649694843
  0
LINE
  5
470D8
330
1E
100
AcDbEntity
  8
枠
 62
    21
100
AcDbLine
 10
9697.267429955653
 20
-127.3323503051542
 30
0.0
 11
9697.267429955653
 21
2045.167649694843
 31
0.0
  0
LINE
  5
470D9
330
1E
100
AcDbEntity
  8
枠
 62
    21
100
AcDbLine
 10
12738.76742995565
 20
-127.3323503051542
 30
0.0
 11
12738.76742995565
 21
2045.167649694843
 31
0.0
  0
LINE
  5
470DA
330
1E
100
AcDbEntity
  8
外形２
100
AcDbLine
 10
12095.26742995565
 20
-28.33235030515425
 30
0.0
 11
12738.76742995565
 21
-28.33235030515425
 31
0.0
  0
LINE
  5
470DB
330
1E
100
AcDbEntity
  8
外形２
100
AcDbLine
 10
12095.26742995565
 20
21.16764969484575
 30
0.0
 11
12738.76742995565
 21
21.16764969484575
 31
0.0
  0
LINE
  5
470DC
330
1E
100
AcDbEntity
  8
外形２
100
AcDbLine
 10
12095.26742995565
 20
70.66764969484575
 30
0.0
 11
12738.76742995565
 21
70.66764969484575
 31
0.0
  0
LINE
  5
470DD
330
1E
100
AcDbEntity
  8
外形２
100
AcDbLine
 10
12095.26742995565
 20
169.6676496948457
 30
0.0
 11
12738.76742995565
 21
169.6676496948457
 31
0.0
  0
TEXT
  5
470DE
330
1E
100
AcDbEntity
  8
文字
100
AcDbText
 10
12446.77242995565
 20
-20.08235030515425
 30
0.0
 40
33.0
  1
検図
 41
0.7
 72
     1
 11
12470.64242995565
 21
-20.08235030515425
 31
0.0
100
AcDbText
  0
LINE
  5
470DF
330
1E
100
AcDbEntity
  8
外形２
100
AcDbLine
 10
12095.26742995565
 20
-127.3323503051542
 30
0.0
 11
12095.26742995565
 21
169.6676496948457
 31
0.0
  0
LINE
  5
470E0
330
1E
100
AcDbEntity
  8
外形２
100
AcDbLine
 10
12095.26742995565
 20
-127.3323503051542
 30
0.0
 11
12095.26742995565
 21
169.6676496948457
 31
0.0
  0
LINE
  5
470E1
330
1E
100
AcDbEntity
  8
外形２
100
AcDbLine
 10
12309.76742995565
 20
-127.3323503051542
 30
0.0
 11
12309.76742995565
 21
169.6676496948457
 31
0.0
  0
LINE
  5
470E2
330
1E
100
AcDbEntity
  8
外形２
100
AcDbLine
 10
12095.26742995565
 20
-77.83235030515425
 30
0.0
 11
12309.76742995565
 21
-77.83235030515425
 31
0.0
  0
TEXT
  5
470E3
330
1E
100
AcDbEntity
  8
文字
100
AcDbText
 10
12137.83742995565
 20
-69.58235030515425
 30
0.0
 40
33.0
  1
製作年月日
 41
0.7
 72
     1
 11
12202.51742995565
 21
-69.58235030515425
 31
0.0
100
AcDbText
  0
TEXT
  5
470E4
330
1E
100
AcDbEntity
  8
文字
100
AcDbText
 10
12131.29242995565
 20
-119.0823503051542
 30
0.0
 40
33.0
  1
'09.07.21
 41
0.7
 72
     1
 11
12202.51742995565
 21
-119.0823503051542
 31
0.0
100
AcDbText
  0
TEXT
  5
470E5
330
1E
100
AcDbEntity
  8
文字
100
AcDbText
 10
12149.38742995565
 20
29.41764969484575
 30
0.0
 40
33.0
  1
図面番号
 41
0.7
 72
     1
 11
12202.51742995565
 21
29.41764969484575
 31
0.0
100
AcDbText
  0
TEXT
  5
470E6
330
1E
100
AcDbEntity
  8
文字
100
AcDbText
 10
12121.24554552716
 20
-20.08235030515425
 30
0.0
 40
33.0
  1
尺度
 41
0.7
 72
     1
 11
12145.88554552716
 21
-20.08235030515425
 31
0.0
100
AcDbText
  0
TEXT
  5
470E7
330
1E
100
AcDbEntity
  8
文字
100
AcDbText
 10
12223.93054552716
 20
-16.71777788398867
 30
0.0
 40
24.75
  1
１/8
 41
0.8
 72
     1
 11
12252.31054552716
 21
-16.71777788398867
 31
0.0
100
AcDbText
  0
LINE
  5
470E8
330
1E
100
AcDbEntity
  8
外形２
100
AcDbLine
 10
12196.62304552716
 20
21.16764969484575
 30
0.0
 11
12196.62304552716
 21
-28.33235030515425
 31
0.0
  0
LINE
  5
470E9
330
1E
100
AcDbEntity
  8
外形２
100
AcDbLine
 10
12417.01742995565
 20
-127.3323503051542
 30
0.0
 11
12417.01742995565
 21
21.16764969484575
 31
0.0
  0
TEXT
  5
470EA
330
1E
100
AcDbEntity
  8
文字
100
AcDbText
 10
12339.52242995565
 20
-20.08235030515425
 30
0.0
 40
33.0
  1
検図
 41
0.7
 72
     1
 11
12363.39242995565
 21
-20.08235030515425
 31
0.0
100
AcDbText
  0
TEXT
  5
470EB
330
1E
100
AcDbEntity
  8
文字
100
AcDbText
 10
12164.01742995565
 20
103.6676496948457
 30
0.0
 40
33.0
  1
名　称
 41
0.7
 72
     1
 11
12202.51742995565
 21
103.6676496948457
 31
0.0
100
AcDbText
  0
TEXT
  5
470EC
330
1E
100
AcDbEntity
  8
文字
100
AcDbText
 10
12661.27242995565
 20
-20.08235030515425
 30
0.0
 40
33.0
  1
製図
 41
0.7
 72
     1
 11
12685.14242995565
 21
-20.08235030515425
 31
0.0
100
AcDbText
  0
LINE
  5
470ED
330
1E
100
AcDbEntity
  8
外形２
100
AcDbLine
 10
12524.26742995565
 20
-127.3323503051542
 30
0.0
 11
12524.26742995565
 21
21.16764969484575
 31
0.0
  0
LINE
  5
470EE
330
1E
100
AcDbEntity
  8
外形２
100
AcDbLine
 10
12631.51742995565
 20
-127.3323503051542
 30
0.0
 11
12631.51742995565
 21
21.16764969484575
 31
0.0
  0
TEXT
  5
470EF
330
1E
100
AcDbEntity
  8
文字
100
AcDbText
 10
12554.02242995565
 20
-20.08235030515425
 30
0.0
 40
33.0
  1
検図
 41
0.7
 72
     1
 11
12577.89242995565
 21
-20.08235030515425
 31
0.0
100
AcDbText
  0
TEXT
  5
470F0
330
1E
100
AcDbEntity
  8
文字
100
AcDbText
 10
12318.01742995565
 20
29.1371507308595
 30
0.0
 40
28.875
  1
ＰＢ１０Ｗ
 41
0.7
100
AcDbText
  0
MTEXT
  5
470F1
330
1E
100
AcDbEntity
  8
文字
100
AcDbMText
 10
12333.58760008454
 20
149.2972731654299
 30
0.0
 40
22.5
 41
345.7024117318378
 71
     1
 72
     5
  1
パーソナルボックス
 73
     1
 44
1.0
1001
ACAD
1000
MTEXTBEGIN
1070
    73
1070
     1
1070
    44
1040
1.0
1070
    74
1070
     0
1000
MTEXTEND
  0
VIEWPORT
  5
360AE
102
{ACAD_XDICTIONARY
360
4785E
102
}
330
1A
100
AcDbEntity
 67
     1
  8
0
100
AcDbViewport
 10
20.97613824468393
 20
4.032011940049642
 30
0.0
 40
1.586560139686913
 41
0.9623123210126323
 68
     1
 69
     1
 12
20.97613824468393
 22
4.032011940049642
 13
0.0
 23
0.0
 14
10.0
 24
10.0
 15
10.0
 25
10.0
 16
0.0
 26
0.0
 36
1.0
 17
0.0
 27
0.0
 37
0.0
 42
50.0
 43
0.0
 44
0.0
 45
0.9623123210126323
 50
0.0
 51
0.0
 72
   100
 90
    32800
  1

281
     0
 71
     1
 74
     0
110
0.0
120
0.0
130
0.0
111
1.0
121
0.0
131
0.0
112
0.0
122
1.0
132
0.0
 79
     0
146
0.0
  0
VIEWPORT
  5
360B0
102
{ACAD_XDICTIONARY
360
47860
102
}
330
1A
100
AcDbEntity
 67
     1
  8
000UV
100
AcDbViewport
 10
23.15279981285631
 20
3.99999976158142
 30
0.0
 40
8.399999618530271
 41
6.399999618530272
 68
     2
 69
     2
 12
4205.13362909062
 22
2334.610892411181
 13
0.0
 23
0.0
 14
1.0
 24
1.0
 15
0.0
 25
0.0
 16
0.0
 26
0.0
 36
1.0
 17
0.0
 27
0.0
 37
0.0
 42
50.0
 43
0.0
 44
0.0
 45
11647.44120739455
 50
0.0
 51
0.0
 72
   100
 90
    37408
  1

281
     0
 71
     1
 74
     0
110
0.0
120
0.0
130
0.0
111
1.0
121
0.0
131
0.0
112
0.0
122
1.0
132
0.0
 79
     0
146
0.0
  0
ENDSEC
  0
SECTION
  2
OBJECTS
  0
DICTIONARY
  5
C
330
0
100
AcDbDictionary
281
     1
  3
ACAD_COLOR
350
45B04
  3
ACAD_GROUP
350
D
  3
ACAD_LAYOUT
350
19
  3
ACAD_MATERIAL
350
45ADA
  3
ACAD_MLEADERSTYLE
350
45B29
  3
ACAD_MLINESTYLE
350
16
  3
ACAD_PLOTSETTINGS
350
18
  3
ACAD_PLOTSTYLENAME
350
E
  3
ACAD_SCALELIST
350
45B07
  3
ACAD_TABLESTYLE
350
45B05
  3
ACAD_VISUALSTYLE
350
45AF3
  3
ACDB_RECOMPOSE_DATA
350
45B5F
  3
AcDbVariableDictionary
350
26F2
  3
DWGPROPS
350
47859
  0
DICTIONARY
  5
4BBD
330
2
100
AcDbDictionary
280
     1
281
     1
  3
ACAD_LAYERFILTERS
360
4BBE
  3
ACAD_LAYERSTATES
360
5EC4
  0
DICTIONARY
  5
45B31
330
10
100
AcDbDictionary
280
     1
281
     1
  3
ADSK_XREC_LAYER_RECONCILED
360
45B32
  0
DICTIONARY
  5
45B37
330
4B92
100
AcDbDictionary
280
     1
281
     1
  3
ADSK_XREC_LAYER_RECONCILED
360
45B38
  0
DICTIONARY
  5
45B39
330
4B93
100
AcDbDictionary
280
     1
281
     1
  3
ADSK_XREC_LAYER_RECONCILED
360
45B3A
  0
DICTIONARY
  5
45B43
330
13A02
100
AcDbDictionary
280
     1
281
     1
  3
ADSK_XREC_LAYER_RECONCILED
360
45B44
  0
DICTIONARY
  5
45B51
330
41248
100
AcDbDictionary
280
     1
281
     1
  3
ADSK_XREC_LAYER_RECONCILED
360
45B52
  0
DICTIONARY
  5
45B53
330
41249
100
AcDbDictionary
280
     1
281
     1
  3
ADSK_XREC_LAYER_RECONCILED
360
45B54
  0
DICTIONARY
  5
45B55
330
4124A
100
AcDbDictionary
280
     1
281
     1
  3
ADSK_XREC_LAYER_RECONCILED
360
45B56
  0
DICTIONARY
  5
45B57
330
4124B
100
AcDbDictionary
280
     1
281
     1
  3
ADSK_XREC_LAYER_RECONCILED
360
45B58
  0
DICTIONARY
  5
45B59
330
4124C
100
AcDbDictionary
280
     1
281
     1
  3
ADSK_XREC_LAYER_RECONCILED
360
45B5A
  0
DICTIONARY
  5
45C44
330
45C43
100
AcDbDictionary
280
     1
281
     1
  0
DICTIONARY
  5
45C46
330
45C45
100
AcDbDictionary
280
     1
281
     1
  0
DICTIONARY
  5
26BB
330
1E
100
AcDbDictionary
280
     1
281
     1
  3
ACAD_LAYOUTSELFREF
360
26EC
  0
DICTIONARY
  5
26BD
330
1A
100
AcDbDictionary
280
     1
281
     1
  3
ACAD_LAYOUTSELFREF
360
26EB
  0
DICTIONARY
  5
4785E
330
360AE
100
AcDbDictionary
280
     1
281
     1
  3
ACAD_XREC_ROUNDTRIP
360
4785F
  0
DICTIONARY
  5
47860
330
360B0
100
AcDbDictionary
280
     1
281
     1
  3
ACAD_XREC_ROUNDTRIP
360
47861
  0
DICTIONARY
  5
45B04
102
{ACAD_REACTORS
330
C
102
}
330
C
100
AcDbDictionary
281
     1
  0
DICTIONARY
  5
D
102
{ACAD_REACTORS
330
C
102
}
330
C
100
AcDbDictionary
281
     1
  3
*A1
350
D115
  3
*A10
350
39FA1
  3
*A2
350
39FAE
  3
*A3
350
D116
  3
*A4
350
D117
  3
*A5
350
D118
  3
*A6
350
20A39
  3
*A7
350
20A3A
  3
*A8
350
20A3B
  3
*A9
350
20A3C
  0
DICTIONARY
  5
19
102
{ACAD_REACTORS
330
C
102
}
330
C
100
AcDbDictionary
281
     1
  3
Model
350
21
  3
ﾚｲｱｳﾄ1
350
1D
  0
DICTIONARY
  5
45ADA
102
{ACAD_REACTORS
330
C
102
}
330
C
100
AcDbDictionary
281
     1
  3
ByBlock
350
45AE3
  3
ByLayer
350
45ADB
  3
Global
350
45AEB
  0
DICTIONARY
  5
45B29
102
{ACAD_REACTORS
330
C
102
}
330
C
100
AcDbDictionary
281
     1
  3
Standard
350
45B2A
  0
DICTIONARY
  5
16
102
{ACAD_REACTORS
330
C
102
}
330
C
100
AcDbDictionary
281
     1
  3
Standard
350
17
  0
DICTIONARY
  5
18
102
{ACAD_REACTORS
330
C
102
}
330
C
100
AcDbDictionary
281
     1
  3
A3 PB枠あり
350
4595A
  3
A3 PB枠なし
350
45959
  3
A4 案2
350
3A2B3
  0
ACDBDICTIONARYWDFLT
  5
E
102
{ACAD_REACTORS
330
C
102
}
330
C
100
AcDbDictionary
281
     1
  3
Normal
350
F
100
AcDbDictionaryWithDefault
340
F
  0
DICTIONARY
  5
45B07
102
{ACAD_REACTORS
330
C
102
}
330
C
100
AcDbDictionary
281
     1
  3
A0
350
45B08
  3
A1
350
45B09
  3
A2
350
45B0A
  3
A3
350
45B0B
  3
A4
350
45B0C
  3
A5
350
45B0D
  3
A6
350
45B0E
  3
A7
350
45B0F
  3
A8
350
45B10
  3
A9
350
45B11
  3
B0
350
45B12
  3
B1
350
45B13
  3
B2
350
45B14
  3
B3
350
45B15
  3
B4
350
45B16
  3
B5
350
45B17
  3
B6
350
45B18
  3
B7
350
45B19
  3
B8
350
45B1A
  3
B9
350
45B1B
  3
C0
350
45B1C
  3
C1
350
45B1D
  3
C2
350
45B1E
  3
C3
350
45B1F
  3
C4
350
45B20
  3
C5
350
45B21
  3
C6
350
45B22
  3
C7
350
45B23
  3
C8
350
45B24
  3
C9
350
45B25
  3
D0
350
45B26
  3
D1
350
45B27
  3
D2
350
45B28
  0
DICTIONARY
  5
45B05
102
{ACAD_REACTORS
330
C
102
}
330
C
100
AcDbDictionary
281
     1
  3
Standard
350
45B06
  0
DICTIONARY
  5
45AF3
102
{ACAD_REACTORS
330
C
102
}
330
C
100
AcDbDictionary
281
     1
  3
2dWireframe
350
45AF9
  3
3D Hidden
350
45AFB
  3
3dWireframe
350
45AFA
  3
Basic
350
45AF8
  3
Brighten
350
45AFF
  3
ColorChange
350
45B03
  3
Conceptual
350
45AFC
  3
Dim
350
45AFE
  3
Facepattern
350
45B02
  3
Flat
350
45AF4
  3
FlatWithEdges
350
45AF5
  3
Gouraud
350
45AF6
  3
GouraudWithEdges
350
45AF7
  3
Linepattern
350
45B01
  3
Realistic
350
45AFD
  3
Thicken
350
45B00
  0
XRECORD
  5
45B5F
102
{ACAD_REACTORS
330
C
102
}
330
C
100
AcDbXrecord
280
     1
 90
        1
330
45B06
  0
DICTIONARY
  5
26F2
102
{ACAD_REACTORS
330
C
102
}
330
C
100
AcDbDictionary
281
     1
  3
CANNOSCALE
350
45B63
  3
CMLEADERSTYLE
350
45B61
  3
CTABLESTYLE
350
45B60
  3
DIMASSOC
350
26F3
  3
INDEXCTL
350
47857
  3
LIGHTINGUNITS
350
45B64
  3
MSLTSCALE
350
45B62
  3
SORTENTS
350
47856
  0
XRECORD
  5
47859
102
{ACAD_REACTORS
330
C
102
}
330
C
100
AcDbXrecord
280
     1
  1
DWGPROPS COOKIE
  2

  3

  4

  6

  7

  8
Owner
  9

300
=
301
=
302
=
303
=
304
=
305
=
306
=
307
=
308
=
309
=
 40
12.21209190972222
 41
2453879.59955625
 42
2455034.641903021
  1

 90
        0
  0
DICTIONARY
  5
4BBE
102
{ACAD_REACTORS
330
4BBD
102
}
330
4BBD
100
AcDbDictionary
280
     1
281
     1
  0
DICTIONARY
  5
5EC4
102
{ACAD_REACTORS
330
4BBD
102
}
330
4BBD
100
AcDbDictionary
281
     1
  0
XRECORD
  5
45B32
102
{ACAD_REACTORS
330
45B31
102
}
330
45B31
100
AcDbXrecord
280
     1
290
     1
  0
XRECORD
  5
45B38
102
{ACAD_REACTORS
330
45B37
102
}
330
45B37
100
AcDbXrecord
280
     1
290
     1
  0
XRECORD
  5
45B3A
102
{ACAD_REACTORS
330
45B39
102
}
330
45B39
100
AcDbXrecord
280
     1
290
     1
  0
XRECORD
  5
45B44
102
{ACAD_REACTORS
330
45B43
102
}
330
45B43
100
AcDbXrecord
280
     1
290
     1
  0
XRECORD
  5
45B52
102
{ACAD_REACTORS
330
45B51
102
}
330
45B51
100
AcDbXrecord
280
     1
290
     1
  0
XRECORD
  5
45B54
102
{ACAD_REACTORS
330
45B53
102
}
330
45B53
100
AcDbXrecord
280
     1
290
     1
  0
XRECORD
  5
45B56
102
{ACAD_REACTORS
330
45B55
102
}
330
45B55
100
AcDbXrecord
280
     1
290
     1
  0
XRECORD
  5
45B58
102
{ACAD_REACTORS
330
45B57
102
}
330
45B57
100
AcDbXrecord
280
     1
290
     1
  0
XRECORD
  5
45B5A
102
{ACAD_REACTORS
330
45B59
102
}
330
45B59
100
AcDbXrecord
280
     1
290
     1
  0
XRECORD
  5
26EC
102
{ACAD_REACTORS
330
26BB
102
}
330
26BB
100
AcDbXrecord
280
     1
340
1E
  0
XRECORD
  5
26EB
102
{ACAD_REACTORS
330
26BD
102
}
330
26BD
100
AcDbXrecord
280
     1
340
1A
  0
XRECORD
  5
4785F
102
{ACAD_REACTORS
330
4785E
102
}
330
4785E
100
AcDbXrecord
280
     1
102
SHADEPLOT
 70
     0
  0
XRECORD
  5
47861
102
{ACAD_REACTORS
330
47860
102
}
330
47860
100
AcDbXrecord
280
     1
102
SHADEPLOT
 70
     0
  0
GROUP
  5
D115
102
{ACAD_REACTORS
330
D
102
}
330
D
100
AcDbGroup
300

 70
     1
 71
     1
  0
GROUP
  5
39FA1
102
{ACAD_REACTORS
330
D
102
}
330
D
100
AcDbGroup
300

 70
     1
 71
     1
  0
GROUP
  5
39FAE
102
{ACAD_REACTORS
330
D
102
}
330
D
100
AcDbGroup
300

 70
     1
 71
     1
  0
GROUP
  5
D116
102
{ACAD_REACTORS
330
D
102
}
330
D
100
AcDbGroup
300

 70
     1
 71
     1
  0
GROUP
  5
D117
102
{ACAD_REACTORS
330
D
102
}
330
D
100
AcDbGroup
300

 70
     1
 71
     1
  0
GROUP
  5
D118
102
{ACAD_REACTORS
330
D
102
}
330
D
100
AcDbGroup
300

 70
     1
 71
     1
  0
GROUP
  5
20A39
102
{ACAD_REACTORS
330
D
102
}
330
D
100
AcDbGroup
300

 70
     1
 71
     1
  0
GROUP
  5
20A3A
102
{ACAD_REACTORS
330
D
102
}
330
D
100
AcDbGroup
300

 70
     1
 71
     1
  0
GROUP
  5
20A3B
102
{ACAD_REACTORS
330
D
102
}
330
D
100
AcDbGroup
300

 70
     1
 71
     1
  0
GROUP
  5
20A3C
102
{ACAD_REACTORS
330
D
102
}
330
D
100
AcDbGroup
300

 70
     1
 71
     1
  0
LAYOUT
  5
21
102
{ACAD_XDICTIONARY
360
4785C
102
}
102
{ACAD_REACTORS
330
19
102
}
330
19
100
AcDbPlotSettings
  1

  2
DocuCentre-II C2200
  4
A3
  6

 40
4.857749938964843
 41
4.942420959472656
 42
4.9423828125
 43
4.857757568359375
 44
297.0106506347656
 45
420.0313415527343
 46
0.0
 47
0.0
 48
1335.106701005461
 49
1934.520978961409
140
5535.106701005465
141
4904.520978961409
142
1.0
143
8.275025241581854
 70
 11952
 72
     1
 73
     1
 74
     1
  7
aclt.ctb
 75
     0
147
0.1208455528298594
148
-9537.720654660217
149
229.7080695369768
100
AcDbLayout
  1
Model
 70
     1
 71
     0
 10
0.0
 20
0.0
 11
12.0
 21
9.0
 12
0.0
 22
0.0
 32
0.0
 14
0.0
 24
0.0
 34
0.0
 15
0.0
 25
0.0
 35
0.0
146
0.0
 13
0.0
 23
0.0
 33
0.0
 16
1.0
 26
0.0
 36
0.0
 17
0.0
 27
1.0
 37
0.0
 76
     0
330
1E
331
45AD8
1001
ACAD_PSEXT
1000
DocuCentre-II C2200
1000
FX DocuCentre-II C2200
1000
192.168.0.200
1000

1070
     0
  0
LAYOUT
  5
1D
102
{ACAD_XDICTIONARY
360
4785A
102
}
102
{ACAD_REACTORS
330
19
102
}
330
19
100
AcDbPlotSettings
  1

  2
EPSON LP-7100
  4
A3
  6

 40
5.873749732971191
 41
5.873747825622558
 42
5.873748779296875
 43
5.873748779296875
 44
419.9466552734374
 45
297.0106506347656
 46
0.0
 47
0.0
 48
5.07975327719123
 49
-5.605308756994418
140
2049.564118413774
141
1437.376591485955
142
10.0
143
1.0
 70
   672
 72
     1
 73
     0
 74
     4
  7
aclt.ctb
 75
     0
147
10.0
148
-5.07975327719123
149
5.605308756994418
100
AcDbLayout
  1
ﾚｲｱｳﾄ1
 70
     1
 71
     1
 10
4.492378303894111
 20
-6.192683539556673
 11
46.48704383123786
 21
23.50838152391989
 12
0.0
 22
0.0
 32
0.0
 14
18.95196538203392
 24
0.7996673802841308
 34
-0.0015258207003583
 15
27.35284428409399
 25
7.200576801086516
 35
0.0000000349246037
146
0.0
 13
0.0
 23
0.0
 33
0.0
 16
1.0
 26
0.0
 36
0.0
 17
0.0
 27
1.0
 37
0.0
 76
     0
330
1A
331
360AE
  0
MATERIAL
  5
45AE3
102
{ACAD_XDICTIONARY
360
45AE4
102
}
102
{ACAD_REACTORS
330
45ADA
102
}
330
45ADA
100
AcDbMaterial
  1
ByBlock
 72
     0
 43
0.0208333333333333
 43
0.0
 43
0.0
 43
0.0
 43
0.0
 43
0.0208333333333333
 43
0.0
 43
0.0
 43
0.0
 43
0.0
 43
1.0
 43
0.0
 43
0.0
 43
0.0
 43
0.0
 43
1.0
 77
     0
 47
0.0208333333333333
 47
0.0
 47
0.0
 47
0.0
 47
0.0
 47
0.0208333333333333
 47
0.0
 47
0.0
 47
0.0
 47
0.0
 47
1.0
 47
0.0
 47
0.0
 47
0.0
 47
0.0
 47
1.0
171
     0
 49
0.0208333333333333
 49
0.0
 49
0.0
 49
0.0
 49
0.0
 49
0.0208333333333333
 49
0.0
 49
0.0
 49
0.0
 49
0.0
 49
1.0
 49
0.0
 49
0.0
 49
0.0
 49
0.0
 49
1.0
175
     0
142
0.0208333333333333
142
0.0
142
0.0
142
0.0
142
0.0
142
0.0208333333333333
142
0.0
142
0.0
142
0.0
142
0.0
142
1.0
142
0.0
142
0.0
142
0.0
142
0.0
142
1.0
179
     0
144
0.0208333333333333
144
0.0
144
0.0
144
0.0
144
0.0
144
0.0208333333333333
144
0.0
144
0.0
144
0.0
144
0.0
144
1.0
144
0.0
144
0.0
144
0.0
144
0.0
144
1.0
147
0.0208333333333333
147
0.0
147
0.0
147
0.0
147
0.0
147
0.0208333333333333
147
0.0
147
0.0
147
0.0
147
0.0
147
1.0
147
0.0
147
0.0
147
0.0
147
0.0
147
1.0
  0
MATERIAL
  5
45ADB
102
{ACAD_XDICTIONARY
360
45ADC
102
}
102
{ACAD_REACTORS
330
45ADA
102
}
330
45ADA
100
AcDbMaterial
  1
ByLayer
 72
     0
 43
0.0208333333333333
 43
0.0
 43
0.0
 43
0.0
 43
0.0
 43
0.0208333333333333
 43
0.0
 43
0.0
 43
0.0
 43
0.0
 43
1.0
 43
0.0
 43
0.0
 43
0.0
 43
0.0
 43
1.0
 77
     0
 47
0.0208333333333333
 47
0.0
 47
0.0
 47
0.0
 47
0.0
 47
0.0208333333333333
 47
0.0
 47
0.0
 47
0.0
 47
0.0
 47
1.0
 47
0.0
 47
0.0
 47
0.0
 47
0.0
 47
1.0
171
     0
 49
0.0208333333333333
 49
0.0
 49
0.0
 49
0.0
 49
0.0
 49
0.0208333333333333
 49
0.0
 49
0.0
 49
0.0
 49
0.0
 49
1.0
 49
0.0
 49
0.0
 49
0.0
 49
0.0
 49
1.0
175
     0
142
0.0208333333333333
142
0.0
142
0.0
142
0.0
142
0.0
142
0.0208333333333333
142
0.0
142
0.0
142
0.0
142
0.0
142
1.0
142
0.0
142
0.0
142
0.0
142
0.0
142
1.0
179
     0
144
0.0208333333333333
144
0.0
144
0.0
144
0.0
144
0.0
144
0.0208333333333333
144
0.0
144
0.0
144
0.0
144
0.0
144
1.0
144
0.0
144
0.0
144
0.0
144
0.0
144
1.0
147
0.0208333333333333
147
0.0
147
0.0
147
0.0
147
0.0
147
0.0208333333333333
147
0.0
147
0.0
147
0.0
147
0.0
147
1.0
147
0.0
147
0.0
147
0.0
147
0.0
147
1.0
  0
MATERIAL
  5
45AEB
102
{ACAD_XDICTIONARY
360
45AEC
102
}
102
{ACAD_REACTORS
330
45ADA
102
}
330
45ADA
100
AcDbMaterial
  1
Global
 72
     0
 43
0.0208333333333333
 43
0.0
 43
0.0
 43
0.0
 43
0.0
 43
0.0208333333333333
 43
0.0
 43
0.0
 43
0.0
 43
0.0
 43
1.0
 43
0.0
 43
0.0
 43
0.0
 43
0.0
 43
1.0
 77
     0
 47
0.0208333333333333
 47
0.0
 47
0.0
 47
0.0
 47
0.0
 47
0.0208333333333333
 47
0.0
 47
0.0
 47
0.0
 47
0.0
 47
1.0
 47
0.0
 47
0.0
 47
0.0
 47
0.0
 47
1.0
171
     0
 49
0.0208333333333333
 49
0.0
 49
0.0
 49
0.0
 49
0.0
 49
0.0208333333333333
 49
0.0
 49
0.0
 49
0.0
 49
0.0
 49
1.0
 49
0.0
 49
0.0
 49
0.0
 49
0.0
 49
1.0
175
     0
142
0.0208333333333333
142
0.0
142
0.0
142
0.0
142
0.0
142
0.0208333333333333
142
0.0
142
0.0
142
0.0
142
0.0
142
1.0
142
0.0
142
0.0
142
0.0
142
0.0
142
1.0
179
     0
144
0.0208333333333333
144
0.0
144
0.0
144
0.0
144
0.0
144
0.0208333333333333
144
0.0
144
0.0
144
0.0
144
0.0
144
1.0
144
0.0
144
0.0
144
0.0
144
0.0
144
1.0
147
0.0208333333333333
147
0.0
147
0.0
147
0.0
147
0.0
147
0.0208333333333333
147
0.0
147
0.0
147
0.0
147
0.0
147
1.0
147
0.0
147
0.0
147
0.0
147
0.0
147
1.0
  0
MLEADERSTYLE
  5
45B2A
102
{ACAD_REACTORS
330
45B29
102
}
330
45B29
100
AcDbMLeaderStyle
170
     2
171
     1
172
     0
 90
        2
 40
0.0
 41
0.0
173
     1
 91
-1056964608
340
13
 92
       -2
290
     1
 42
0.09
291
     1
 43
0.36
  3
Standard
 44
0.18
300

342
11
174
     1
178
     6
175
     1
176
     0
 93
-1056964608
 45
0.18
292
     0
297
     0
 46
0.18
 94
-1056964608
 47
1.0
 49
1.0
140
1.0
293
     1
141
0.0
294
     1
177
     0
142
1.0
295
     0
296
     0
143
0.125
1001
ACAD_MLEADERVER
1070
     2
  0
MLINESTYLE
  5
17
102
{ACAD_REACTORS
330
16
102
}
330
16
100
AcDbMlineStyle
  2
STANDARD
 70
     0
  3

 62
   256
 51
90.0
 52
90.0
 71
     2
 49
0.5
 62
   256
  6
BYLAYER
 49
-0.5
 62
   256
  6
BYLAYER
  0
PLOTSETTINGS
  5
4595A
102
{ACAD_XDICTIONARY
360
47866
102
}
102
{ACAD_REACTORS
330
18
102
}
330
18
100
AcDbPlotSettings
  1
A3 PB枠あり
  2
DocuCentre-II C2200
  4
A3
  6

 40
4.857749938964843
 41
4.942420959472656
 42
4.9423828125
 43
4.857757568359375
 44
297.0106506347656
 45
420.0313415527343
 46
0.0
 47
0.0
 48
1393.60546721737
 49
5329.478677878956
140
5486.635288901787
141
8182.677179575732
142
1.0
143
10.0
 70
  1696
 72
     1
 73
     1
 74
     4
  7
aclt-2.ctb
 75
     0
147
0.1
148
-1393.60546721737
149
-5329.478677878956
  0
PLOTSETTINGS
  5
45959
102
{ACAD_XDICTIONARY
360
47864
102
}
102
{ACAD_REACTORS
330
18
102
}
330
18
100
AcDbPlotSettings
  1
A3 PB枠なし
  2
DocuCentre-II C2200
  4
A3
  6

 40
4.857749938964843
 41
4.942420959472656
 42
4.9423828125
 43
4.857757568359375
 44
297.0106506347656
 45
420.0313415527343
 46
0.0
 47
0.0
 48
1392.563297438777
 49
1980.150554324453
140
5461.469192534649
141
4849.423439692586
142
1.0
143
10.0
 70
  1696
 72
     1
 73
     1
 74
     4
  7
aclt-2.ctb
 75
     0
147
0.1
148
-1392.563297438777
149
-1980.150554324453
  0
PLOTSETTINGS
  5
3A2B3
102
{ACAD_XDICTIONARY
360
47862
102
}
102
{ACAD_REACTORS
330
18
102
}
330
18
100
AcDbPlotSettings
  1
A4 案2
  2
Canon MP770 Series Printer
  4
A4
  6

 40
4.180416584014892
 41
5.83141803741455
 42
4.180404663085937
 43
3.757080078125
 44
209.9733276367187
 45
296.9683227539062
 46
0.0
 47
0.0
 48
-936.7259743672748
 49
1956.843062178737
140
1125.176252402714
141
3400.166262639294
142
1.0
143
7.174832921429498
 70
  1712
 72
     1
 73
     1
 74
     4
  7
aclt-2.ctb
 75
     0
147
0.1393760678403034
148
936.7259743672748
149
-1956.843062178737
  0
ACDBPLACEHOLDER
  5
F
102
{ACAD_REACTORS
330
E
102
}
330
E
  0
SCALE
  5
45B08
102
{ACAD_REACTORS
330
45B07
102
}
330
45B07
100
AcDbScale
 70
     0
300
1:1
140
1.0
141
1.0
290
     1
  0
SCALE
  5
45B09
102
{ACAD_REACTORS
330
45B07
102
}
330
45B07
100
AcDbScale
 70
     0
300
1:2
140
1.0
141
2.0
290
     0
  0
SCALE
  5
45B0A
102
{ACAD_REACTORS
330
45B07
102
}
330
45B07
100
AcDbScale
 70
     0
300
1:4
140
1.0
141
4.0
290
     0
  0
SCALE
  5
45B0B
102
{ACAD_REACTORS
330
45B07
102
}
330
45B07
100
AcDbScale
 70
     0
300
1:5
140
1.0
141
5.0
290
     0
  0
SCALE
  5
45B0C
102
{ACAD_REACTORS
330
45B07
102
}
330
45B07
100
AcDbScale
 70
     0
300
1:8
140
1.0
141
8.0
290
     0
  0
SCALE
  5
45B0D
102
{ACAD_REACTORS
330
45B07
102
}
330
45B07
100
AcDbScale
 70
     0
300
1:10
140
1.0
141
10.0
290
     0
  0
SCALE
  5
45B0E
102
{ACAD_REACTORS
330
45B07
102
}
330
45B07
100
AcDbScale
 70
     0
300
1:16
140
1.0
141
16.0
290
     0
  0
SCALE
  5
45B0F
102
{ACAD_REACTORS
330
45B07
102
}
330
45B07
100
AcDbScale
 70
     0
300
1:20
140
1.0
141
20.0
290
     0
  0
SCALE
  5
45B10
102
{ACAD_REACTORS
330
45B07
102
}
330
45B07
100
AcDbScale
 70
     0
300
1:30
140
1.0
141
30.0
290
     0
  0
SCALE
  5
45B11
102
{ACAD_REACTORS
330
45B07
102
}
330
45B07
100
AcDbScale
 70
     0
300
1:40
140
1.0
141
40.0
290
     0
  0
SCALE
  5
45B12
102
{ACAD_REACTORS
330
45B07
102
}
330
45B07
100
AcDbScale
 70
     0
300
1:50
140
1.0
141
50.0
290
     0
  0
SCALE
  5
45B13
102
{ACAD_REACTORS
330
45B07
102
}
330
45B07
100
AcDbScale
 70
     0
300
1:100
140
1.0
141
100.0
290
     0
  0
SCALE
  5
45B14
102
{ACAD_REACTORS
330
45B07
102
}
330
45B07
100
AcDbScale
 70
     0
300
2:1
140
2.0
141
1.0
290
     0
  0
SCALE
  5
45B15
102
{ACAD_REACTORS
330
45B07
102
}
330
45B07
100
AcDbScale
 70
     0
300
4:1
140
4.0
141
1.0
290
     0
  0
SCALE
  5
45B16
102
{ACAD_REACTORS
330
45B07
102
}
330
45B07
100
AcDbScale
 70
     0
300
8:1
140
8.0
141
1.0
290
     0
  0
SCALE
  5
45B17
102
{ACAD_REACTORS
330
45B07
102
}
330
45B07
100
AcDbScale
 70
     0
300
10:1
140
10.0
141
1.0
290
     0
  0
SCALE
  5
45B18
102
{ACAD_REACTORS
330
45B07
102
}
330
45B07
100
AcDbScale
 70
     0
300
100:1
140
100.0
141
1.0
290
     0
  0
SCALE
  5
45B19
102
{ACAD_REACTORS
330
45B07
102
}
330
45B07
100
AcDbScale
 70
     0
300
1/128" = 1'-0"
140
0.0078125
141
12.0
290
     0
  0
SCALE
  5
45B1A
102
{ACAD_REACTORS
330
45B07
102
}
330
45B07
100
AcDbScale
 70
     0
300
1/64" = 1'-0"
140
0.015625
141
12.0
290
     0
  0
SCALE
  5
45B1B
102
{ACAD_REACTORS
330
45B07
102
}
330
45B07
100
AcDbScale
 70
     0
300
1/32" = 1'-0"
140
0.03125
141
12.0
290
     0
  0
SCALE
  5
45B1C
102
{ACAD_REACTORS
330
45B07
102
}
330
45B07
100
AcDbScale
 70
     0
300
1/16" = 1'-0"
140
0.0625
141
12.0
290
     0
  0
SCALE
  5
45B1D
102
{ACAD_REACTORS
330
45B07
102
}
330
45B07
100
AcDbScale
 70
     0
300
3/32" = 1'-0"
140
0.09375
141
12.0
290
     0
  0
SCALE
  5
45B1E
102
{ACAD_REACTORS
330
45B07
102
}
330
45B07
100
AcDbScale
 70
     0
300
1/8" = 1'-0"
140
0.125
141
12.0
290
     0
  0
SCALE
  5
45B1F
102
{ACAD_REACTORS
330
45B07
102
}
330
45B07
100
AcDbScale
 70
     0
300
3/16" = 1'-0"
140
0.1875
141
12.0
290
     0
  0
SCALE
  5
45B20
102
{ACAD_REACTORS
330
45B07
102
}
330
45B07
100
AcDbScale
 70
     0
300
1/4" = 1'-0"
140
0.25
141
12.0
290
     0
  0
SCALE
  5
45B21
102
{ACAD_REACTORS
330
45B07
102
}
330
45B07
100
AcDbScale
 70
     0
300
3/8" = 1'-0"
140
0.375
141
12.0
290
     0
  0
SCALE
  5
45B22
102
{ACAD_REACTORS
330
45B07
102
}
330
45B07
100
AcDbScale
 70
     0
300
1/2" = 1'-0"
140
0.5
141
12.0
290
     0
  0
SCALE
  5
45B23
102
{ACAD_REACTORS
330
45B07
102
}
330
45B07
100
AcDbScale
 70
     0
300
3/4" = 1'-0"
140
0.75
141
12.0
290
     0
  0
SCALE
  5
45B24
102
{ACAD_REACTORS
330
45B07
102
}
330
45B07
100
AcDbScale
 70
     0
300
1" = 1'-0"
140
1.0
141
12.0
290
     0
  0
SCALE
  5
45B25
102
{ACAD_REACTORS
330
45B07
102
}
330
45B07
100
AcDbScale
 70
     0
300
1-1/2" = 1'-0"
140
1.5
141
12.0
290
     0
  0
SCALE
  5
45B26
102
{ACAD_REACTORS
330
45B07
102
}
330
45B07
100
AcDbScale
 70
     0
300
3" = 1'-0"
140
3.0
141
12.0
290
     0
  0
SCALE
  5
45B27
102
{ACAD_REACTORS
330
45B07
102
}
330
45B07
100
AcDbScale
 70
     0
300
6" = 1'-0"
140
6.0
141
12.0
290
     0
  0
SCALE
  5
45B28
102
{ACAD_REACTORS
330
45B07
102
}
330
45B07
100
AcDbScale
 70
     0
300
1'-0" = 1'-0"
140
12.0
141
12.0
290
     0
  0
TABLESTYLE
  5
45B06
102
{ACAD_XDICTIONARY
360
45B5D
102
}
102
{ACAD_REACTORS
330
45B05
102
}
330
45B05
100
AcDbTableStyle
  3
Standard
 70
     0
 71
     0
 40
0.06
 41
0.06
280
     0
281
     0
  7
STANDARD
140
0.18
170
     2
 62
     0
 63
     7
283
     0
274
    -2
284
     1
 64
     0
275
    -2
285
     1
 65
     0
276
    -2
286
     1
 66
     0
277
    -2
287
     1
 67
     0
278
    -2
288
     1
 68
     0
279
    -2
289
     1
 69
     0
  7
STANDARD
140
0.25
170
     5
 62
     0
 63
     7
283
     0
274
    -2
284
     1
 64
     0
275
    -2
285
     1
 65
     0
276
    -2
286
     1
 66
     0
277
    -2
287
     1
 67
     0
278
    -2
288
     1
 68
     0
279
    -2
289
     1
 69
     0
  7
STANDARD
140
0.18
170
     5
 62
     0
 63
     7
283
     0
274
    -2
284
     1
 64
     0
275
    -2
285
     1
 65
     0
276
    -2
286
     1
 66
     0
277
    -2
287
     1
 67
     0
278
    -2
288
     1
 68
     0
279
    -2
289
     1
 69
     0
  0
VISUALSTYLE
  5
45AF9
102
{ACAD_REACTORS
330
45AF3
102
}
330
45AF3
100
AcDbVisualStyle
  2
2dWireframe
 70
     4
 71
     0
 72
     2
 73
     0
 90
        0
 40
-0.6
 41
-30.0
 62
     5
 63
     7
 74
     1
 91
        4
 64
     7
 65
   257
 75
     1
175
     1
 42
1.0
 92
        0
 66
   257
 43
1.0
 76
     1
 77
     6
 78
     2
 67
     7
 79
     5
170
     0
171
     0
290
     0
174
     0
 93
        1
 44
0.0
173
     0
291
     0
 45
0.0
1001
ACAD
1000
AcDbSavedByObjectVersion
1070
     0
  0
VISUALSTYLE
  5
45AFB
102
{ACAD_REACTORS
330
45AF3
102
}
330
45AF3
100
AcDbVisualStyle
  2
3D Hidden
 70
     6
 71
     1
 72
     2
 73
     2
 90
        0
 40
-0.6
 41
-30.0
 62
     5
 63
     7
 74
     2
 91
        2
 64
     7
 65
   257
 75
     2
175
     1
 42
40.0
 92
        0
 66
   257
 43
1.0
 76
     1
 77
     6
 78
     2
 67
     7
 79
     3
170
     0
171
     0
290
     0
174
     0
 93
        1
 44
0.0
173
     0
291
     0
 45
0.0
1001
ACAD
1000
AcDbSavedByObjectVersion
1070
     0
  0
VISUALSTYLE
  5
45AFA
102
{ACAD_REACTORS
330
45AF3
102
}
330
45AF3
100
AcDbVisualStyle
  2
3dWireframe
 70
     5
 71
     0
 72
     2
 73
     0
 90
        0
 40
-0.6
 41
-30.0
 62
     5
 63
     7
 74
     1
 91
        4
 64
     7
 65
   257
 75
     1
175
     1
 42
1.0
 92
        0
 66
   257
 43
1.0
 76
     1
 77
     6
 78
     2
 67
     7
 79
     5
170
     0
171
     0
290
     0
174
     0
 93
        1
 44
0.0
173
     0
291
     0
 45
0.0
1001
ACAD
1000
AcDbSavedByObjectVersion
1070
     0
  0
VISUALSTYLE
  5
45AF8
102
{ACAD_REACTORS
330
45AF3
102
}
330
45AF3
100
AcDbVisualStyle
  2
Basic
 70
     7
 71
     1
 72
     0
 73
     1
 90
        0
 40
-0.6
 41
-30.0
 62
     5
 63
     7
 74
     0
 91
        4
 64
     7
 65
   257
 75
     1
175
     1
 42
1.0
 92
        8
 66
     7
 43
1.0
 76
     1
 77
     6
 78
     2
 67
     7
 79
     5
170
     0
171
     0
290
     0
174
     0
 93
        1
 44
0.0
173
     0
291
     1
 45
0.0
1001
ACAD
1000
AcDbSavedByObjectVersion
1070
     0
  0
VISUALSTYLE
  5
45AFF
102
{ACAD_REACTORS
330
45AF3
102
}
330
45AF3
100
AcDbVisualStyle
  2
Brighten
 70
    12
 71
     2
 72
     2
 73
     0
 90
        0
 40
-0.6
 41
-30.0
 62
     5
 63
     7
 74
     1
 91
        4
 64
     7
 65
   257
 75
     1
175
     1
 42
1.0
 92
        8
 66
     7
 43
1.0
 76
     1
 77
     6
 78
     2
 67
     7
 79
     5
170
     0
171
     0
290
     0
174
     0
 93
        1
 44
50.0
173
     0
291
     1
 45
0.0
1001
ACAD
1000
AcDbSavedByObjectVersion
1070
     0
  0
VISUALSTYLE
  5
45B03
102
{ACAD_REACTORS
330
45AF3
102
}
330
45AF3
100
AcDbVisualStyle
  2
ColorChange
 70
    16
 71
     2
 72
     2
 73
     3
 90
        0
 40
-0.6
 41
-30.0
 62
     5
 63
     8
 74
     1
 91
        4
 64
     7
 65
   257
 75
     1
175
     1
 42
1.0
 92
        8
 66
     8
 43
1.0
 76
     1
 77
     6
 78
     2
 67
     7
 79
     5
170
     0
171
     0
290
     0
174
     0
 93
        1
 44
0.0
173
     0
291
     1
 45
0.0
1001
ACAD
1000
AcDbSavedByObjectVersion
1070
     0
  0
VISUALSTYLE
  5
45AFC
102
{ACAD_REACTORS
330
45AF3
102
}
330
45AF3
100
AcDbVisualStyle
  2
Conceptual
 70
     9
 71
     3
 72
     2
 73
     0
 90
        0
 40
-0.6
 41
-30.0
 62
     5
 63
     7
 74
     2
 91
        2
 64
     7
 65
   257
 75
     1
175
     1
 42
40.0
 92
        8
 66
     7
 43
1.0
 76
     1
 77
     6
 78
     2
 67
     7
 79
     3
170
     0
171
     0
290
     0
174
     0
 93
        1
 44
0.0
173
     0
291
     0
 45
0.0
1001
ACAD
1000
AcDbSavedByObjectVersion
1070
     0
  0
VISUALSTYLE
  5
45AFE
102
{ACAD_REACTORS
330
45AF3
102
}
330
45AF3
100
AcDbVisualStyle
  2
Dim
 70
    11
 71
     2
 72
     2
 73
     0
 90
        0
 40
-0.6
 41
-30.0
 62
     5
 63
     7
 74
     1
 91
        4
 64
     7
 65
   257
 75
     1
175
     1
 42
1.0
 92
        8
 66
     7
 43
1.0
 76
     1
 77
     6
 78
     2
 67
     7
 79
     5
170
     0
171
     0
290
     0
174
     0
 93
        1
 44
-50.0
173
     0
291
     1
 45
0.0
1001
ACAD
1000
AcDbSavedByObjectVersion
1070
     0
  0
VISUALSTYLE
  5
45B02
102
{ACAD_REACTORS
330
45AF3
102
}
330
45AF3
100
AcDbVisualStyle
  2
Facepattern
 70
    15
 71
     2
 72
     2
 73
     0
 90
        0
 40
-0.6
 41
-30.0
 62
     5
 63
     7
 74
     1
 91
        4
 64
     7
 65
   257
 75
     1
175
     1
 42
1.0
 92
        8
 66
     7
 43
1.0
 76
     1
 77
     6
 78
     2
 67
     7
 79
     5
170
     0
171
     0
290
     0
174
     0
 93
        1
 44
0.0
173
     0
291
     1
 45
0.0
1001
ACAD
1000
AcDbSavedByObjectVersion
1070
     0
  0
VISUALSTYLE
  5
45AF4
102
{ACAD_REACTORS
330
45AF3
102
}
330
45AF3
100
AcDbVisualStyle
  2
Flat
 70
     0
 71
     2
 72
     1
 73
     1
 90
        2
 40
-0.6
 41
30.0
 62
     5
 63
     7
 74
     0
 91
        4
 64
     7
 65
   257
 75
     1
175
     1
 42
1.0
 92
        8
 66
     7
 43
1.0
 76
     1
 77
     6
 78
     2
 67
     7
 79
     5
170
     0
171
     0
290
     0
174
     0
 93
       13
 44
0.0
173
     0
291
     1
 45
0.0
1001
ACAD
1000
AcDbSavedByObjectVersion
1070
     0
  0
VISUALSTYLE
  5
45AF5
102
{ACAD_REACTORS
330
45AF3
102
}
330
45AF3
100
AcDbVisualStyle
  2
FlatWithEdges
 70
     1
 71
     2
 72
     1
 73
     1
 90
        2
 40
-0.6
 41
30.0
 62
     5
 63
     7
 74
     1
 91
        4
 64
     7
 65
   257
 75
     1
175
     1
 42
1.0
 92
        0
 66
   257
 43
1.0
 76
     1
 77
     6
 78
     2
 67
     7
 79
     5
170
     0
171
     0
290
     0
174
     0
 93
       13
 44
0.0
173
     0
291
     1
 45
0.0
1001
ACAD
1000
AcDbSavedByObjectVersion
1070
     0
  0
VISUALSTYLE
  5
45AF6
102
{ACAD_REACTORS
330
45AF3
102
}
330
45AF3
100
AcDbVisualStyle
  2
Gouraud
 70
     2
 71
     2
 72
     2
 73
     1
 90
        2
 40
-0.6
 41
30.0
 62
     5
 63
     7
 74
     0
 91
        4
 64
     7
 65
   257
 75
     1
175
     1
 42
1.0
 92
        0
 66
     7
 43
1.0
 76
     1
 77
     6
 78
     2
 67
     7
 79
     5
170
     0
171
     0
290
     0
174
     0
 93
       13
 44
0.0
173
     0
291
     1
 45
0.0
1001
ACAD
1000
AcDbSavedByObjectVersion
1070
     0
  0
VISUALSTYLE
  5
45AF7
102
{ACAD_REACTORS
330
45AF3
102
}
330
45AF3
100
AcDbVisualStyle
  2
GouraudWithEdges
 70
     3
 71
     2
 72
     2
 73
     1
 90
        2
 40
-0.6
 41
30.0
 62
     5
 63
     7
 74
     1
 91
        4
 64
     7
 65
   257
 75
     1
175
     1
 42
1.0
 92
        0
 66
   257
 43
1.0
 76
     1
 77
     6
 78
     2
 67
     7
 79
     5
170
     0
171
     0
290
     0
174
     0
 93
       13
 44
0.0
173
     0
291
     1
 45
0.0
1001
ACAD
1000
AcDbSavedByObjectVersion
1070
     0
  0
VISUALSTYLE
  5
45B01
102
{ACAD_REACTORS
330
45AF3
102
}
330
45AF3
100
AcDbVisualStyle
  2
Linepattern
 70
    14
 71
     2
 72
     2
 73
     0
 90
        0
 40
-0.6
 41
-30.0
 62
     5
 63
     7
 74
     1
 91
        4
 64
     7
 65
   257
 75
     7
175
     7
 42
1.0
 92
        8
 66
     7
 43
1.0
 76
     1
 77
     6
 78
     2
 67
     7
 79
     5
170
     0
171
     0
290
     0
174
     0
 93
        1
 44
0.0
173
     0
291
     1
 45
0.0
1001
ACAD
1000
AcDbSavedByObjectVersion
1070
     0
  0
VISUALSTYLE
  5
45AFD
102
{ACAD_REACTORS
330
45AF3
102
}
330
45AF3
100
AcDbVisualStyle
  2
Realistic
 70
     8
 71
     2
 72
     2
 73
     0
 90
        0
 40
-0.6
 41
-30.0
 62
     5
 63
     7
 74
     1
 91
        0
 64
     7
 65
   257
 75
     1
175
     1
 42
1.0
 92
        8
 66
     8
 43
1.0
 76
     1
 77
     6
 78
     2
 67
     7
 79
     5
170
     0
171
     0
290
     0
174
     0
 93
       13
 44
0.0
173
     0
291
     0
 45
0.0
1001
ACAD
1000
AcDbSavedByObjectVersion
1070
     0
  0
VISUALSTYLE
  5
45B00
102
{ACAD_REACTORS
330
45AF3
102
}
330
45AF3
100
AcDbVisualStyle
  2
Thicken
 70
    13
 71
     2
 72
     2
 73
     0
 90
        0
 40
-0.6
 41
-30.0
 62
     5
 63
     7
 74
     1
 91
        4
 64
     7
 65
   257
 75
     1
175
     1
 42
1.0
 92
       12
 66
     7
 43
1.0
 76
     1
 77
     6
 78
     2
 67
     7
 79
     5
170
     0
171
     0
290
     0
174
     0
 93
        1
 44
0.0
173
     0
291
     1
 45
0.0
1001
ACAD
1000
AcDbSavedByObjectVersion
1070
     0
  0
DICTIONARYVAR
  5
45B63
102
{ACAD_REACTORS
330
26F2
102
}
330
26F2
100
DictionaryVariables
280
     0
  1
1:1
  0
DICTIONARYVAR
  5
45B61
102
{ACAD_REACTORS
330
26F2
102
}
330
26F2
100
DictionaryVariables
280
     0
  1
STANDARD
  0
DICTIONARYVAR
  5
45B60
102
{ACAD_REACTORS
330
26F2
102
}
330
26F2
100
DictionaryVariables
280
     0
  1
STANDARD
  0
DICTIONARYVAR
  5
26F3
102
{ACAD_REACTORS
330
26F2
102
}
330
26F2
100
DictionaryVariables
280
     0
  1
1
  0
DICTIONARYVAR
  5
47857
102
{ACAD_REACTORS
330
26F2
102
}
330
26F2
100
DictionaryVariables
280
     0
  1
0
  0
DICTIONARYVAR
  5
45B64
102
{ACAD_REACTORS
330
26F2
102
}
330
26F2
100
DictionaryVariables
280
     0
  1
0
  0
DICTIONARYVAR
  5
45B62
102
{ACAD_REACTORS
330
26F2
102
}
330
26F2
100
DictionaryVariables
280
     0
  1
0
  0
DICTIONARYVAR
  5
47856
102
{ACAD_REACTORS
330
26F2
102
}
330
26F2
100
DictionaryVariables
280
     0
  1
127
  0
DICTIONARY
  5
4785C
330
21
100
AcDbDictionary
280
     1
281
     1
  3
ACAD_XREC_ROUNDTRIP
360
4785D
  0
DICTIONARY
  5
4785A
330
1D
100
AcDbDictionary
280
     1
281
     1
  3
ACAD_XREC_ROUNDTRIP
360
4785B
  0
DICTIONARY
  5
45AE4
330
45AE3
100
AcDbDictionary
280
     1
281
     1
  3
ACAD_XREC_ROUNDTRIP
360
47869
  3
BUMPTILE
360
45AE6
  3
DIFFUSETILE
360
45AE5
  3
OPACITYTILE
360
45AE9
  3
REFLECTIONTILE
360
45AE8
  3
REFRACTIONTILE
360
45AEA
  3
SPECULARTILE
360
45AE7
  0
DICTIONARY
  5
45ADC
330
45ADB
100
AcDbDictionary
280
     1
281
     1
  3
ACAD_XREC_ROUNDTRIP
360
47868
  3
BUMPTILE
360
45ADE
  3
DIFFUSETILE
360
45ADD
  3
OPACITYTILE
360
45AE1
  3
REFLECTIONTILE
360
45AE0
  3
REFRACTIONTILE
360
45AE2
  3
SPECULARTILE
360
45ADF
  0
DICTIONARY
  5
45AEC
330
45AEB
100
AcDbDictionary
280
     1
281
     1
  3
ACAD_XREC_ROUNDTRIP
360
4786A
  3
BUMPTILE
360
45AEE
  3
DIFFUSETILE
360
45AED
  3
OPACITYTILE
360
45AF1
  3
REFLECTIONTILE
360
45AF0
  3
REFRACTIONTILE
360
45AF2
  3
SPECULARTILE
360
45AEF
  0
DICTIONARY
  5
47866
330
4595A
100
AcDbDictionary
280
     1
281
     1
  3
ACAD_XREC_ROUNDTRIP
360
47867
  0
DICTIONARY
  5
47864
330
45959
100
AcDbDictionary
280
     1
281
     1
  3
ACAD_XREC_ROUNDTRIP
360
47865
  0
DICTIONARY
  5
47862
330
3A2B3
100
AcDbDictionary
280
     1
281
     1
  3
ACAD_XREC_ROUNDTRIP
360
47863
  0
DICTIONARY
  5
45B5D
330
45B06
100
AcDbDictionary
280
     1
281
     1
  3
ACAD_ROUNDTRIP_2008_TABLESTYLE_CELLSTYLEMAP
360
47858
  3
ACAD_XREC_ROUNDTRIP
360
4786B
  0
XRECORD
  5
4785D
102
{ACAD_REACTORS
330
4785C
102
}
330
4785C
100
AcDbXrecord
280
     1
102
SHADEPLOT
 70
     0
102
SHADEPLOTRESLEVEL
 70
     2
102
SHADEPLOTCUSTOMDPI
 70
   300
  0
XRECORD
  5
4785B
102
{ACAD_REACTORS
330
4785A
102
}
330
4785A
100
AcDbXrecord
280
     1
102
SHADEPLOT
 70
     0
102
SHADEPLOTRESLEVEL
 70
     2
102
SHADEPLOTCUSTOMDPI
 70
   300
  0
XRECORD
  5
47869
102
{ACAD_REACTORS
330
45AE4
102
}
330
45AE4
100
AcDbXrecord
280
     1
102
MATERIAL
148
0.0
149
0.0
149
0.0
 93
        0
 94
      127
282
     0
 72
     0
 77
     0
171
     0
175
     0
179
     0
273
     0
  0
XRECORD
  5
45AE6
102
{ACAD_REACTORS
330
45AE4
102
}
330
45AE4
100
AcDbXrecord
280
     1
270
     1
271
     1
  0
XRECORD
  5
45AE5
102
{ACAD_REACTORS
330
45AE4
102
}
330
45AE4
100
AcDbXrecord
280
     1
270
     1
271
     1
  0
XRECORD
  5
45AE9
102
{ACAD_REACTORS
330
45AE4
102
}
330
45AE4
100
AcDbXrecord
280
     1
270
     1
271
     1
  0
XRECORD
  5
45AE8
102
{ACAD_REACTORS
330
45AE4
102
}
330
45AE4
100
AcDbXrecord
280
     1
270
     1
271
     1
  0
XRECORD
  5
45AEA
102
{ACAD_REACTORS
330
45AE4
102
}
330
45AE4
100
AcDbXrecord
280
     1
270
     1
271
     1
  0
XRECORD
  5
45AE7
102
{ACAD_REACTORS
330
45AE4
102
}
330
45AE4
100
AcDbXrecord
280
     1
270
     1
271
     1
  0
XRECORD
  5
47868
102
{ACAD_REACTORS
330
45ADC
102
}
330
45ADC
100
AcDbXrecord
280
     1
102
MATERIAL
148
0.0
149
0.0
149
0.0
 93
        0
 94
      127
282
     0
 72
     0
 77
     0
171
     0
175
     0
179
     0
273
     0
  0
XRECORD
  5
45ADE
102
{ACAD_REACTORS
330
45ADC
102
}
330
45ADC
100
AcDbXrecord
280
     1
270
     1
271
     1
  0
XRECORD
  5
45ADD
102
{ACAD_REACTORS
330
45ADC
102
}
330
45ADC
100
AcDbXrecord
280
     1
270
     1
271
     1
  0
XRECORD
  5
45AE1
102
{ACAD_REACTORS
330
45ADC
102
}
330
45ADC
100
AcDbXrecord
280
     1
270
     1
271
     1
  0
XRECORD
  5
45AE0
102
{ACAD_REACTORS
330
45ADC
102
}
330
45ADC
100
AcDbXrecord
280
     1
270
     1
271
     1
  0
XRECORD
  5
45AE2
102
{ACAD_REACTORS
330
45ADC
102
}
330
45ADC
100
AcDbXrecord
280
     1
270
     1
271
     1
  0
XRECORD
  5
45ADF
102
{ACAD_REACTORS
330
45ADC
102
}
330
45ADC
100
AcDbXrecord
280
     1
270
     1
271
     1
  0
XRECORD
  5
4786A
102
{ACAD_REACTORS
330
45AEC
102
}
330
45AEC
100
AcDbXrecord
280
     1
102
MATERIAL
148
0.0
149
0.0
149
0.0
 93
        0
 94
      127
282
     0
 72
     0
 77
     0
171
     0
175
     0
179
     0
273
     0
  0
XRECORD
  5
45AEE
102
{ACAD_REACTORS
330
45AEC
102
}
330
45AEC
100
AcDbXrecord
280
     1
270
     1
271
     1
  0
XRECORD
  5
45AED
102
{ACAD_REACTORS
330
45AEC
102
}
330
45AEC
100
AcDbXrecord
280
     1
270
     1
271
     1
  0
XRECORD
  5
45AF1
102
{ACAD_REACTORS
330
45AEC
102
}
330
45AEC
100
AcDbXrecord
280
     1
270
     1
271
     1
  0
XRECORD
  5
45AF0
102
{ACAD_REACTORS
330
45AEC
102
}
330
45AEC
100
AcDbXrecord
280
     1
270
     1
271
     1
  0
XRECORD
  5
45AF2
102
{ACAD_REACTORS
330
45AEC
102
}
330
45AEC
100
AcDbXrecord
280
     1
270
     1
271
     1
  0
XRECORD
  5
45AEF
102
{ACAD_REACTORS
330
45AEC
102
}
330
45AEC
100
AcDbXrecord
280
     1
270
     1
271
     1
  0
XRECORD
  5
47867
102
{ACAD_REACTORS
330
47866
102
}
330
47866
100
AcDbXrecord
280
     1
102
SHADEPLOT
 70
     0
102
SHADEPLOTRESLEVEL
 70
     2
102
SHADEPLOTCUSTOMDPI
 70
   300
  0
XRECORD
  5
47865
102
{ACAD_REACTORS
330
47864
102
}
330
47864
100
AcDbXrecord
280
     1
102
SHADEPLOT
 70
     0
102
SHADEPLOTRESLEVEL
 70
     2
102
SHADEPLOTCUSTOMDPI
 70
   300
  0
XRECORD
  5
47863
102
{ACAD_REACTORS
330
47862
102
}
330
47862
100
AcDbXrecord
280
     1
102
SHADEPLOT
 70
     0
102
SHADEPLOTRESLEVEL
 70
     2
102
SHADEPLOTCUSTOMDPI
 70
   300
  0
CELLSTYLEMAP
  5
47858
102
{ACAD_REACTORS
330
45B5D
102
}
330
45B5D
100
AcDbCellStyleMap
 90
        3
300
CELLSTYLE
  1
TABLEFORMAT_BEGIN
 90
        5
170
     1
 91
        0
 92
    32768
 62
   257
 93
        1
300
CONTENTFORMAT
  1
CONTENTFORMAT_BEGIN
 90
        0
 91
        0
 92
      512
 93
        0
300

 40
0.0
140
1.0
 94
        5
 62
     0
340
11
144
0.25
309
CONTENTFORMAT_END
171
     0
 94
        0
309
TABLEFORMAT_END
  1
CELLSTYLE_BEGIN
 90
        1
 91
        1
300
_TITLE
309
CELLSTYLE_END
300
CELLSTYLE
  1
TABLEFORMAT_BEGIN
 90
        5
170
     1
 91
        0
 92
        0
 62
   257
 93
        1
300
CONTENTFORMAT
  1
CONTENTFORMAT_BEGIN
 90
        0
 91
        0
 92
      512
 93
        0
300

 40
0.0
140
1.0
 94
        5
 62
     0
340
11
144
0.18
309
CONTENTFORMAT_END
171
     0
 94
        0
309
TABLEFORMAT_END
  1
CELLSTYLE_BEGIN
 90
        2
 91
        1
300
_HEADER
309
CELLSTYLE_END
300
CELLSTYLE
  1
TABLEFORMAT_BEGIN
 90
        5
170
     1
 91
        0
 92
        0
 62
   257
 93
        1
300
CONTENTFORMAT
  1
CONTENTFORMAT_BEGIN
 90
        0
 91
        0
 92
      512
 93
        0
300

 40
0.0
140
1.0
 94
        2
 62
     0
340
11
144
0.18
309
CONTENTFORMAT_END
171
     0
 94
        0
309
TABLEFORMAT_END
  1
CELLSTYLE_BEGIN
 90
        3
 91
        2
300
_DATA
309
CELLSTYLE_END
  0
XRECORD
  5
4786B
102
{ACAD_REACTORS
330
45B5D
102
}
330
45B5D
100
AcDbXrecord
280
     1
102
ACAD_ROUNDTRIP_PRE2007_TABLESTYLE
 90
      512
 91
        0
  1

 92
      512
 93
        0
  2

 94
      512
 95
        0
  3

  0
ENDSEC
  0
EOF
